Скачать через торрент музыку Benny Carter - Benny Carter Songbook Vol II - 1997, FLAC бесплатно без регистрации torrent

Если у вас наблюдаются проблемы со скриншотами, переходом по ссылками, скачиванием торрентов - проблемы в блокировщике рекламы AdBlock. #хорошегоДня!


Статистика раздачи
Размер:  369 MB   |    Зарегистрирован:  5 лет 8 месяцев   |    .torrent скачан:  21 раз   |   
Раздают:  1  
   
Загрузка...
 
Автор Сообщение

Umakiro

avatar Umakiro


Benny Carter / Benny Carter Songbook Vol II

Жанр: Swing
Год издания диска: 1997
Издатель (лейбл): MusicMasters
Номер по каталогу: 65155
Страна: USA New York, NY
Аудиокодек: FLAC (*.flac)
Тип рипа: tracks+.cue
Битрейт аудио: lossless
Продолжительность: 01:15:32
Источник (релизер): kaishin521
Наличие сканов в содержимом раздачи: нет
Треклист:
01. My Mind Is Still On You - Joe Williams [03:23]
02. Echo Of My Dream - Dianna Krall [05:07]
03. Rock Me To Sleep - Ruth Brown [05:58]
04. Stop Me Before I Fall In Love Again - Billy Stritch [04:01]
05. He Doesn't Need Me Now - Nancy Marano [08:31]
06. Doozy - Jon Hendricks [06:02]
07. Nevermore - Billy Stritch [05:07]
08. Malibu - Lainie Kazan [07:04]
09. Blue Moonlight - Marlena Shaw [05:51]
10. Evening Star - Kenny Rankin [05:28]
11. Slow Carousel - Nancy Marano [04:44]
12. Whisper To One - Barbara Lea [04:02]
13. I'm The Caring Kind - Weslia Whitfield [05:52]
14. When Hilma Smiles [04:16]
 
X Lossless Decoder version 20111214 (138.1)

XLD extraction logfile from 2011-12-22 09:49:30 -0500

Benny Carter / Benny Carter Songbook Vol II

Used drive : MATSHITA DVD-R UJ-898 (revision HC10)

Ripper mode : XLD Secure RipperDisable audio cache : OK for the drive with a cache less than 1375KiBMake use of C2 pointers : NORead offset correction : 102Max retry count : 100Gap status : Analyzed, Appended (except HTOA)

TOC of the extracted CD Track | Start | Length | Start sector | End sector --------------------------------------------------------- 1 | 00:00:00 | 03:26:07 | 0 | 15456 2 | 03:26:07 | 05:10:20 | 15457 | 38726 3 | 08:36:27 | 06:00:25 | 38727 | 65751 4 | 14:36:52 | 04:04:15 | 65752 | 84066 5 | 18:40:67 | 08:33:68 | 84067 | 122609 6 | 27:14:60 | 06:05:10 | 122610 | 149994 7 | 33:19:70 | 05:10:22 | 149995 | 173266 8 | 38:30:17 | 07:05:15 | 173267 | 205156 9 | 45:35:32 | 05:53:50 | 205157 | 231681 10 | 51:29:07 | 05:30:00 | 231682 | 256431 11 | 56:59:07 | 04:46:05 | 256432 | 277886 12 | 61:45:12 | 04:05:00 | 277887 | 296261 13 | 65:50:12 | 05:56:28 | 296262 | 322989 14 | 71:46:40 | 04:16:57 | 322990 | 342246

AccurateRip Summary Track 01 : OK (confidence 2) Track 02 : OK (confidence 2) Track 03 : OK (confidence 2) Track 04 : OK (confidence 2) Track 05 : OK (confidence 2) Track 06 : OK (confidence 2) Track 07 : OK (confidence 2) Track 08 : OK (confidence 2) Track 09 : OK (confidence 2) Track 10 : OK (confidence 2) Track 11 : OK (confidence 2) Track 12 : OK (confidence 2) Track 13 : OK (confidence 2) Track 14 : Not Found ->13 track(s) accurately ripped, 0 track(s) not, 1 track(s) not found

All Tracks Album gain : -0.72 dB Peak : 0.860474 Statistics Read error : 0 Jitter error (maybe fixed) : 0 Retry sector count : 0 Damaged sector count : 0

Track 01 Filename : /01 - My Mind Is Still On You - Joe Williams.flac /01 - My Mind Is Still On You - Joe Williams(LAME MP3 (VBR-new quality 0.0)).mp3 /01 - My Mind Is Still On You - Joe Williams(LAME MP3 (CBR 320kbps)).mp3 Pre-gap length : 00:02:00

Track gain : -0.90 dB Peak : 0.746552 CRC32 hash (test run) : 5E771152 CRC32 hash : 5E771152 CRC32 hash (skip zero) : 9EE5BD71 AccurateRip signature : EEB2A921 ->Accurately ripped! (confidence 2) Statistics Read error : 0 Jitter error (maybe fixed) : 0 Retry sector count : 0 Damaged sector count : 0

Track 02 Filename : /02 - Echo Of My Dream - Dianna Krall.flac /02 - Echo Of My Dream - Dianna Krall(LAME MP3 (VBR-new quality 0.0)).mp3 /02 - Echo Of My Dream - Dianna Krall(LAME MP3 (CBR 320kbps)).mp3 Pre-gap length : 00:02:65

Track gain : 0.73 dB Peak : 0.802704 CRC32 hash (test run) : 1C2C1FF5 CRC32 hash : 1C2C1FF5 CRC32 hash (skip zero) : F1828FCF AccurateRip signature : A560EFF6 ->Accurately ripped! (confidence 2) Statistics Read error : 0 Jitter error (maybe fixed) : 0 Retry sector count : 0 Damaged sector count : 0

Track 03 Filename : /03 - Rock Me To Sleep - Ruth Brown.flac /03 - Rock Me To Sleep - Ruth Brown(LAME MP3 (VBR-new quality 0.0)).mp3 /03 - Rock Me To Sleep - Ruth Brown(LAME MP3 (CBR 320kbps)).mp3 Pre-gap length : 00:02:30

Track gain : 0.58 dB Peak : 0.748230 CRC32 hash (test run) : 3F8239FA CRC32 hash : 3F8239FA CRC32 hash (skip zero) : EBC0C010 AccurateRip signature : C8DE9F91 ->Accurately ripped! (confidence 2) Statistics Read error : 0 Jitter error (maybe fixed) : 0 Retry sector count : 0 Damaged sector count : 0

Track 04 Filename : /04 - Stop Me Before I Fall In Love Again - Billy Stritch.flac /04 - Stop Me Before I Fall In Love Again - Billy Stritch(LAME MP3 (VBR-new quality 0.0)).mp3 /04 - Stop Me Before I Fall In Love Again - Billy Stritch(LAME MP3 (CBR 320kbps)).mp3 Pre-gap length : 00:01:60

Track gain : -1.59 dB Peak : 0.794342 CRC32 hash (test run) : CA80EEB3 CRC32 hash : CA80EEB3 CRC32 hash (skip zero) : A5ECC76D AccurateRip signature : 5B9A10FB ->Accurately ripped! (confidence 2) Statistics Read error : 0 Jitter error (maybe fixed) : 0 Retry sector count : 0 Damaged sector count : 0

Track 05 Filename : /05 - He Doesn't Need Me Now - Nancy Marano.flac /05 - He Doesn't Need Me Now - Nancy Marano(LAME MP3 (VBR-new quality 0.0)).mp3 /05 - He Doesn't Need Me Now - Nancy Marano(LAME MP3 (CBR 320kbps)).mp3 Pre-gap length : 00:02:45

Track gain : -1.55 dB Peak : 0.717621 CRC32 hash (test run) : 4DC2A67B CRC32 hash : 4DC2A67B CRC32 hash (skip zero) : 182E7F3B AccurateRip signature : 0CFCF7FF ->Accurately ripped! (confidence 2) Statistics Read error : 0 Jitter error (maybe fixed) : 0 Retry sector count : 0 Damaged sector count : 0

Track 06 Filename : /06 - Doozy - Jon Hendricks.flac /06 - Doozy - Jon Hendricks(LAME MP3 (VBR-new quality 0.0)).mp3 /06 - Doozy - Jon Hendricks(LAME MP3 (CBR 320kbps)).mp3 Pre-gap length : 00:02:35

Track gain : -0.80 dB Peak : 0.860474 CRC32 hash (test run) : FCFD9A9B CRC32 hash : FCFD9A9B CRC32 hash (skip zero) : D6CAF854 AccurateRip signature : 366DFD50 ->Accurately ripped! (confidence 2) Statistics Read error : 0 Jitter error (maybe fixed) : 0 Retry sector count : 0 Damaged sector count : 0

Track 07 Filename : /07 - Nevermore - Billy Stritch.flac /07 - Nevermore - Billy Stritch(LAME MP3 (VBR-new quality 0.0)).mp3 /07 - Nevermore - Billy Stritch(LAME MP3 (CBR 320kbps)).mp3 Pre-gap length : 00:02:60

Track gain : -1.42 dB Peak : 0.674927 CRC32 hash (test run) : 1881FDD1 CRC32 hash : 1881FDD1 CRC32 hash (skip zero) : 2C6B4C6B AccurateRip signature : A3F69593 ->Accurately ripped! (confidence 2) Statistics Read error : 0 Jitter error (maybe fixed) : 0 Retry sector count : 0 Damaged sector count : 0

Track 08 Filename : /08 - Malibu - Lainie Kazan.flac /08 - Malibu - Lainie Kazan(LAME MP3 (VBR-new quality 0.0)).mp3 /08 - Malibu - Lainie Kazan(LAME MP3 (CBR 320kbps)).mp3 Pre-gap length : 00:03:22

Track gain : -0.66 dB Peak : 0.772858 CRC32 hash (test run) : 00D1C127 CRC32 hash : 00D1C127 CRC32 hash (skip zero) : D85C9E80 AccurateRip signature : E26C70AB ->Accurately ripped! (confidence 2) Statistics Read error : 0 Jitter error (maybe fixed) : 0 Retry sector count : 0 Damaged sector count : 0

Track 09 Filename : /09 - Blue Moonlight - Marlena Shaw.flac /09 - Blue Moonlight - Marlena Shaw(LAME MP3 (VBR-new quality 0.0)).mp3 /09 - Blue Moonlight - Marlena Shaw(LAME MP3 (CBR 320kbps)).mp3 Pre-gap length : 00:00:32

Track gain : -2.12 dB Peak : 0.810364 CRC32 hash (test run) : 97B6F363 CRC32 hash : 97B6F363 CRC32 hash (skip zero) : C6E0DE9B AccurateRip signature : 2B9B21B5 ->Accurately ripped! (confidence 2) Statistics Read error : 0 Jitter error (maybe fixed) : 0 Retry sector count : 0 Damaged sector count : 0

Track 10 Filename : /10 - Evening Star - Kenny Rankin.flac /10 - Evening Star - Kenny Rankin(LAME MP3 (VBR-new quality 0.0)).mp3 /10 - Evening Star - Kenny Rankin(LAME MP3 (CBR 320kbps)).mp3 Pre-gap length : 00:02:02

Track gain : 0.54 dB Peak : 0.735596 CRC32 hash (test run) : 35CEB8F2 CRC32 hash : 35CEB8F2 CRC32 hash (skip zero) : 3A321DAD AccurateRip signature : EDB338DA ->Accurately ripped! (confidence 2) Statistics Read error : 0 Jitter error (maybe fixed) : 0 Retry sector count : 0 Damaged sector count : 0

Track 11 Filename : /11 - Slow Carousel - Nancy Marano.flac /11 - Slow Carousel - Nancy Marano(LAME MP3 (VBR-new quality 0.0)).mp3 /11 - Slow Carousel - Nancy Marano(LAME MP3 (CBR 320kbps)).mp3 Pre-gap length : 00:01:60

Track gain : -1.51 dB Peak : 0.736237 CRC32 hash (test run) : E4DDAD75 CRC32 hash : E4DDAD75 CRC32 hash (skip zero) : CEB792CA AccurateRip signature : EB0AC0FF ->Accurately ripped! (confidence 2) Statistics Read error : 0 Jitter error (maybe fixed) : 0 Retry sector count : 0 Damaged sector count : 0

Track 12 Filename : /12 - Whisper To One - Barbara Lea.flac /12 - Whisper To One - Barbara Lea(LAME MP3 (VBR-new quality 0.0)).mp3 /12 - Whisper To One - Barbara Lea(LAME MP3 (CBR 320kbps)).mp3 Pre-gap length : 00:02:02

Track gain : 1.60 dB Peak : 0.738678 CRC32 hash (test run) : 3AFF8FF1 CRC32 hash : 3AFF8FF1 CRC32 hash (skip zero) : 9F258962 AccurateRip signature : AC42533A ->Accurately ripped! (confidence 2) Statistics Read error : 0 Jitter error (maybe fixed) : 0 Retry sector count : 0 Damaged sector count : 0

Track 13 Filename : /13 - I'm The Caring Kind - Weslia Whitfield.flac /13 - I'm The Caring Kind - Weslia Whitfield(LAME MP3 (VBR-new quality 0.0)).mp3 /13 - I'm The Caring Kind - Weslia Whitfield(LAME MP3 (CBR 320kbps)).mp3 Pre-gap length : 00:02:32

Track gain : 0.08 dB Peak : 0.817535 CRC32 hash (test run) : 06638435 CRC32 hash : 06638435 CRC32 hash (skip zero) : 5F8970AA AccurateRip signature : 104A5F8F ->Accurately ripped! (confidence 2) Statistics Read error : 0 Jitter error (maybe fixed) : 0 Retry sector count : 0 Damaged sector count : 0

Track 14 Filename : /14 - When Hilma Smiles.flac /14 - When Hilma Smiles(LAME MP3 (VBR-new quality 0.0)).mp3 /14 - When Hilma Smiles(LAME MP3 (CBR 320kbps)).mp3 Pre-gap length : 00:03:35

Track gain : 2.41 dB Peak : 0.578247 CRC32 hash (test run) : E651751B CRC32 hash : E651751B CRC32 hash (skip zero) : 85A4D426 AccurateRip signature : EA0C39CF ->Track not present in AccurateRip database. Statistics Read error : 0 Jitter error (maybe fixed) : 0 Retry sector count : 0 Damaged sector count : 0

No errors occurred

End of status report
 
TITLE "Benny Carter Songbook Vol II"PERFORMER "Benny Carter"REM GENRE "Jazz"REM DISCID AF11D30EREM REPLAYGAIN_ALBUM_GAIN -0.72 dBREM REPLAYGAIN_ALBUM_PEAK 0.860474FILE "01 - My Mind Is Still On You - Joe Williams.flac" WAVE TRACK 01 AUDIO TITLE "My Mind Is Still On You - Joe Williams" REM REPLAYGAIN_TRACK_GAIN -0.90 dB REM REPLAYGAIN_TRACK_PEAK 0.746552 INDEX 01 00:00:00 TRACK 02 AUDIO TITLE "Echo Of My Dream - Dianna Krall" REM REPLAYGAIN_TRACK_GAIN 0.73 dB REM REPLAYGAIN_TRACK_PEAK 0.802704 INDEX 00 03:23:17FILE "02 - Echo Of My Dream - Dianna Krall.flac" WAVE INDEX 01 00:00:00 TRACK 03 AUDIO TITLE "Rock Me To Sleep - Ruth Brown" REM REPLAYGAIN_TRACK_GAIN 0.58 dB REM REPLAYGAIN_TRACK_PEAK 0.748230 INDEX 00 05:07:65FILE "03 - Rock Me To Sleep - Ruth Brown.flac" WAVE INDEX 01 00:00:00 TRACK 04 AUDIO TITLE "Stop Me Before I Fall In Love Again - Billy Stritch" REM REPLAYGAIN_TRACK_GAIN -1.59 dB REM REPLAYGAIN_TRACK_PEAK 0.794342 INDEX 00 05:58:40FILE "04 - Stop Me Before I Fall In Love Again - Billy Stritch.flac" WAVE INDEX 01 00:00:00 TRACK 05 AUDIO TITLE "He Doesn't Need Me Now - Nancy Marano" REM REPLAYGAIN_TRACK_GAIN -1.55 dB REM REPLAYGAIN_TRACK_PEAK 0.717621 INDEX 00 04:01:45FILE "05 - He Doesn't Need Me Now - Nancy Marano.flac" WAVE INDEX 01 00:00:00 TRACK 06 AUDIO TITLE "Doozy - Jon Hendricks" REM REPLAYGAIN_TRACK_GAIN -0.80 dB REM REPLAYGAIN_TRACK_PEAK 0.860474 INDEX 00 08:31:33FILE "06 - Doozy - Jon Hendricks.flac" WAVE INDEX 01 00:00:00 TRACK 07 AUDIO TITLE "Nevermore - Billy Stritch" REM REPLAYGAIN_TRACK_GAIN -1.42 dB REM REPLAYGAIN_TRACK_PEAK 0.674927 INDEX 00 06:02:25FILE "07 - Nevermore - Billy Stritch.flac" WAVE INDEX 01 00:00:00 TRACK 08 AUDIO TITLE "Malibu - Lainie Kazan" REM REPLAYGAIN_TRACK_GAIN -0.66 dB REM REPLAYGAIN_TRACK_PEAK 0.772858 INDEX 00 05:07:00FILE "08 - Malibu - Lainie Kazan.flac" WAVE INDEX 01 00:00:00 TRACK 09 AUDIO TITLE "Blue Moonlight - Marlena Shaw" REM REPLAYGAIN_TRACK_GAIN -2.12 dB REM REPLAYGAIN_TRACK_PEAK 0.810364 INDEX 00 07:04:58FILE "09 - Blue Moonlight - Marlena Shaw.flac" WAVE INDEX 01 00:00:00 TRACK 10 AUDIO TITLE "Evening Star - Kenny Rankin" REM REPLAYGAIN_TRACK_GAIN 0.54 dB REM REPLAYGAIN_TRACK_PEAK 0.735596 INDEX 00 05:51:48FILE "10 - Evening Star - Kenny Rankin.flac" WAVE INDEX 01 00:00:00 TRACK 11 AUDIO TITLE "Slow Carousel - Nancy Marano" REM REPLAYGAIN_TRACK_GAIN -1.51 dB REM REPLAYGAIN_TRACK_PEAK 0.736237 INDEX 00 05:28:15FILE "11 - Slow Carousel - Nancy Marano.flac" WAVE INDEX 01 00:00:00 TRACK 12 AUDIO TITLE "Whisper To One - Barbara Lea" REM REPLAYGAIN_TRACK_GAIN 1.60 dB REM REPLAYGAIN_TRACK_PEAK 0.738678 INDEX 00 04:44:03FILE "12 - Whisper To One - Barbara Lea.flac" WAVE INDEX 01 00:00:00 TRACK 13 AUDIO TITLE "I'm The Caring Kind - Weslia Whitfield" REM REPLAYGAIN_TRACK_GAIN 0.08 dB REM REPLAYGAIN_TRACK_PEAK 0.817535 INDEX 00 04:02:43FILE "13 - I'm The Caring Kind - Weslia Whitfield.flac" WAVE INDEX 01 00:00:00 TRACK 14 AUDIO TITLE "When Hilma Smiles" REM REPLAYGAIN_TRACK_GAIN 2.41 dB REM REPLAYGAIN_TRACK_PEAK 0.578247 INDEX 00 05:52:68FILE "14 - When Hilma Smiles.flac" WAVE INDEX 01 00:00:00
Benny Carter (vocals, alto saxophone);
Joe Williams, Weslia Whitfield, Ruth Brown, Billy Stritch, Nancy Marano, Jon Hendricks, Lainie Kazan, Marlena Shaw, Kenny Rankin, Barbara Lea, Diana Krall (vocals);
Warren Vache (cornet);
Chris Neville (piano);
Steve LaSpina (bass);
Sherman Ferguson, Roy McCurdy (drums)
.


Трекер:  [ 29-Янв-2012 15:06 ]

  

Скачать .torrent

Размер .torrent файла 16 KB


Размер: 369 MB
Хэш (hash) релиза: 2ba2f0a77ddc03e8d9f85bc6faf0c8b9352926b4

Еще никто не оставлял запись к записи скачать торрент Benny Carter - Benny Carter Songbook Vol II - 1997, FLAC . Будь первым!

!Обратная связь