Скачать через торрент музыку Burton Greene - Live At The Woodstock Playhouse - 2010, APE бесплатно без регистрации torrent

Если у вас наблюдаются проблемы со скриншотами, переходом по ссылками, скачиванием торрентов - проблемы в блокировщике рекламы AdBlock. #хорошегоДня!


Статистика раздачи
Размер:  305 MB   |    Зарегистрирован:  5 лет 8 месяцев   |    .torrent скачан:  26 раз   |   
Раздают:  1  
   
Загрузка...
 
Автор Сообщение

Umakiro

avatar Umakiro


Burton Greene - Live At The Woodstock Playhouse
Жанр: Free Jazz
Год издания диска: 2010
Издатель (лейбл): Porter Records
Номер по каталогу: PRCD - 4040
Аудиокодек: APE (*.ape)
Тип рипа: image+.cue
Битрейт аудио: lossless
Продолжительность: 00:58:42
Источник (релизер): barin99
Наличие сканов в содержимом раздачи: да
01. Three Theme II [11:54]
02. Cluster Quartet II [19:00]
03. Like It Is [27:42]

Recording information: Woodstock Playhouse 1965
 
Exact Audio Copy V1.0 beta 1 from 15. November 2010

EAC extraction logfile from 12. November 2011, 18:08

Burton Greene / Live At The Woodstock Playhouse 1965

Used drive : TSSTcorpDVD+-RW TS-L532B Adapter: 1 ID: 0

Read mode : SecureUtilize accurate stream : YesDefeat audio cache : YesMake use of C2 pointers : No

Read offset correction : 704Overread into Lead-In and Lead-Out : NoFill up missing offset samples with silence : YesDelete leading and trailing silent blocks : NoNull samples used in CRC calculations : YesUsed interface : Native Win32 interface for Win NT & 2000

Used output format : Internal WAV RoutinesSample format : 44.100 Hz; 16 Bit; Stereo

TOC of the extracted CD

Track | Start | Length | Start sector | End sector --------------------------------------------------------- 1 | 0:00.00 | 11:54.26 | 0 | 53575 2 | 11:54.26 | 19:00.52 | 53576 | 139127 3 | 30:55.03 | 27:42.57 | 139128 | 263834

Range status and errors

Selected range

Filename C:\Documents and Settings\VB\My Documents\BARIN99\Burton Greene - Live At The Woodstock Playhouse 1965\Burton Greene - Live At The Woodstock Playhouse 1965.wav

Peak level 100.0 % Extraction speed 1.3 X Range quality 100.0 % Copy CRC BEF3F4F5 Copy OK

No errors occurred

AccurateRip summary

Track 1 not present in databaseTrack 2 not present in databaseTrack 3 not present in database

None of the tracks are present in the AccurateRip database

End of status report
 
REM GENRE JazzREM DATE 1965REM DISCID 250DBD03REM COMMENT "ExactAudioCopy v1.0b1"PERFORMER "Burton Greene"TITLE "Live At The Woodstock Playhouse 1965"FILE "Burton Greene - Live At The Woodstock Playhouse 1965.wav" WAVE TRACK 01 AUDIO TITLE "Three Theme II" PERFORMER "Burton Greene" FLAGS DCP INDEX 01 00:00:00 TRACK 02 AUDIO TITLE "Cluster Quartet II" PERFORMER "Burton Greene" FLAGS DCP INDEX 01 11:54:26 TRACK 03 AUDIO TITLE "Like It Is" PERFORMER "Burton Greene" FLAGS DCP INDEX 01 30:55:03
Burton Greene (piano)
Marion Brown (alto saxophone)
Rashied Ali (drums)
Reggie Johnson (bass)


Трекер:  [ 29-Янв-2012 15:06 ]

  

Скачать .torrent

Размер .torrent файла 13 KB


Размер: 305 MB
Хэш (hash) релиза: 65851ecdcee6bb4590129a98f39a8142607803d9

Еще никто не оставлял запись к записи скачать торрент Burton Greene - Live At The Woodstock Playhouse - 2010, APE . Будь первым!

!Обратная связь