Скачать через торрент музыку Bill Doggett - Wow! - бесплатно без регистрации torrent

Если у вас наблюдаются проблемы со скриншотами, переходом по ссылками, скачиванием торрентов - проблемы в блокировщике рекламы AdBlock. #хорошегоДня!


Статистика раздачи
Размер:  224 MB   |    Зарегистрирован:  5 лет 8 месяцев   |    .torrent скачан:  25 раз   |   
Раздают:  1  
   
Загрузка...
 
Автор Сообщение

Umakiro

avatar Umakiro


Bill Doggett - Wow!

Жанр: Soul Jazz
Страна-производитель диска: USA
Год издания диска: (1964) - 2001
Издатель (лейбл): Verve
Номер по каталогу: 549 372-2
Страна: US Philadelphia, PA
Аудиокодек: FLAC (*.flac)
Тип рипа: tracks+.cue
Битрейт аудио: lossless
Продолжительность: 00:34:10
Источник (релизер): сеть
Наличие сканов в содержимом раздачи: да
01. Wow! [02:36]
02. Oo-Da [03:52]
03. Ol' Mose Blues [08:06]
04. Happy Soul Time [02:48]
05. The Kicker [02:42]
06. Mudcat [02:36]
07. Ram-Bunk-Shush [03:12]
08. Slow Talk [03:35]
09. Fatso [04:39]
 
Exact Audio Copy V1.0 beta 1 from 15. November 2010

EAC extraction logfile from 8. June 2011, 10:48

Bill Doggett / Wow

Used drive : TSSTcorpCDDVDW SH-S203N Adapter: 0 ID: 2

Read mode : SecureUtilize accurate stream : YesDefeat audio cache : YesMake use of C2 pointers : No

Read offset correction : 6Overread into Lead-In and Lead-Out : NoFill up missing offset samples with silence : YesDelete leading and trailing silent blocks : NoNull samples used in CRC calculations : YesUsed interface : Installed external ASPI interfaceGap handling : Appended to previous track

Used output format : User Defined EncoderSelected bitrate : 768 kBit/sQuality : HighAdd ID3 tag : NoCommand line compressor : C:\Program Files\Exact Audio Copy-NEW\Flac\flac.exeAdditional command line options : -8 -V -T "ARTIST=%a" -T "TITLE=%t" -T "ALBUM=%g" -T "DATE=%y" -T "TRACKNUMBER=%n" -T "TOTALTRACKS=%x" -T "GENRE=%m" -T "ALBUMARTIST=%v" -T "ALBUM ARTIST=%v" -T "COMMENT=EAC V1.01b1, Secure Mode, Test & Copy, AccurateRip, FL

TOC of the extracted CD

Track | Start | Length | Start sector | End sector --------------------------------------------------------- 1 | 0:00.00 | 2:36.22 | 0 | 11721 2 | 2:36.22 | 3:52.55 | 11722 | 29176 3 | 6:29.02 | 8:06.23 | 29177 | 65649 4 | 14:35.25 | 2:48.62 | 65650 | 78311 5 | 17:24.12 | 2:42.13 | 78312 | 90474 6 | 20:06.25 | 2:36.37 | 90475 | 102211 7 | 22:42.62 | 3:12.25 | 102212 | 116636 8 | 25:55.12 | 3:35.48 | 116637 | 132809 9 | 29:30.60 | 4:39.35 | 132810 | 153769

Track 1

Filename J:\New Rips\Bill Doggett - Wow (2001) [FLAC]\01 - Wow.wav

Pre-gap length 0:00:02.00

Peak level 87.2 % Extraction speed 1.6 X Track quality 100.0 % Test CRC AC77EFD7 Copy CRC AC77EFD7 Track not present in AccurateRip database Copy OK

Track 2

Filename J:\New Rips\Bill Doggett - Wow (2001) [FLAC]\02 - Oo-Da.wav

Pre-gap length 0:00:03.60

Peak level 71.9 % Extraction speed 1.9 X Track quality 100.0 % Test CRC 12744903 Copy CRC 12744903 Track not present in AccurateRip database Copy OK

Track 3

Filename J:\New Rips\Bill Doggett - Wow (2001) [FLAC]\03 - Ol' Mose Blues.wav

Pre-gap length 0:00:03.37

Peak level 80.8 % Extraction speed 2.3 X Track quality 100.0 % Test CRC FE9596E4 Copy CRC FE9596E4 Track not present in AccurateRip database Copy OK

Track 4

Filename J:\New Rips\Bill Doggett - Wow (2001) [FLAC]\04 - Happy Soul Time.wav

Pre-gap length 0:00:03.00

Peak level 76.2 % Extraction speed 2.2 X Track quality 100.0 % Test CRC 53FEB3B2 Copy CRC 53FEB3B2 Track not present in AccurateRip database Copy OK

Track 5

Filename J:\New Rips\Bill Doggett - Wow (2001) [FLAC]\05 - The Kicker.wav

Pre-gap length 0:00:04.17

Peak level 71.9 % Extraction speed 2.3 X Track quality 100.0 % Test CRC 0BB79D65 Copy CRC 0BB79D65 Track not present in AccurateRip database Copy OK

Track 6

Filename J:\New Rips\Bill Doggett - Wow (2001) [FLAC]\06 - Mudcat.wav

Pre-gap length 0:00:03.25

Peak level 78.2 % Extraction speed 2.3 X Track quality 100.0 % Test CRC 7FA85709 Copy CRC 7FA85709 Track not present in AccurateRip database Copy OK

Track 7

Filename J:\New Rips\Bill Doggett - Wow (2001) [FLAC]\07 - Ram-Bunk-Shush.wav

Pre-gap length 0:00:02.50

Peak level 75.4 % Extraction speed 2.6 X Track quality 100.0 % Test CRC 7B972231 Copy CRC 7B972231 Track not present in AccurateRip database Copy OK

Track 8

Filename J:\New Rips\Bill Doggett - Wow (2001) [FLAC]\08 - Slow Talk.wav

Pre-gap length 0:00:03.10

Peak level 76.3 % Extraction speed 2.7 X Track quality 100.0 % Test CRC 7A71D06D Copy CRC 7A71D06D Track not present in AccurateRip database Copy OK

Track 9

Filename J:\New Rips\Bill Doggett - Wow (2001) [FLAC]\09 - Fatso.wav

Pre-gap length 0:00:03.28

Peak level 74.0 % Extraction speed 2.9 X Track quality 100.0 % Test CRC 25D80BD8 Copy CRC 25D80BD8 Track not present in AccurateRip database Copy OK

None of the tracks are present in the AccurateRip database

No errors occurred

End of status report

==== Log checksum CB47FEC8A7646AF27C3E377D00EA69D76B27493ED9D1C77EF979B2E28283D327 ====
 
REM GENRE JazzREM DATE 2001REM DISCID 7A080209REM COMMENT "ExactAudioCopy v1.0b1"PERFORMER "Bill Doggett"TITLE "Wow"FILE "01 - Wow.flac" WAVE TRACK 01 AUDIO TITLE "Wow" PERFORMER "Bill Doggett" INDEX 01 00:00:00 TRACK 02 AUDIO TITLE "Oo-Da" PERFORMER "Bill Doggett" INDEX 00 02:32:37FILE "02 - Oo-Da.flac" WAVE INDEX 01 00:00:00 TRACK 03 AUDIO TITLE "Ol' Mose Blues" PERFORMER "Bill Doggett" INDEX 00 03:49:18FILE "03 - Ol' Mose Blues.flac" WAVE INDEX 01 00:00:00 TRACK 04 AUDIO TITLE "Happy Soul Time" PERFORMER "Bill Doggett" INDEX 00 08:03:23FILE "04 - Happy Soul Time.flac" WAVE INDEX 01 00:00:00 TRACK 05 AUDIO TITLE "The Kicker" PERFORMER "Bill Doggett" INDEX 00 02:44:45FILE "05 - The Kicker.flac" WAVE INDEX 01 00:00:00 TRACK 06 AUDIO TITLE "Mudcat" PERFORMER "Bill Doggett" INDEX 00 02:38:63FILE "06 - Mudcat.flac" WAVE INDEX 01 00:00:00 TRACK 07 AUDIO TITLE "Ram-Bunk-Shush" PERFORMER "Bill Doggett" INDEX 00 02:33:62FILE "07 - Ram-Bunk-Shush.flac" WAVE INDEX 01 00:00:00 TRACK 08 AUDIO TITLE "Slow Talk" PERFORMER "Bill Doggett" INDEX 00 03:09:15FILE "08 - Slow Talk.flac" WAVE INDEX 01 00:00:00 TRACK 09 AUDIO TITLE "Fatso" PERFORMER "Bill Doggett" INDEX 00 03:32:20FILE "09 - Fatso.flac" WAVE INDEX 01 00:00:00
Bill Doggett (organ)
Elvin Shepard (alto & tenor saxophones)
Andrew Ennis (tenor & baritone saxophones)
Billy Butler, Lamar McDaniels (guitar)
Al Lucas (bass)
Emmett J. Spencer (drums)
Charles E. Hatcher (percussion)


Трекер:  [ 29-Янв-2012 15:05 ]

  

Скачать .torrent

Размер .torrent файла 19 KB


Размер: 224 MB
Хэш (hash) релиза: 33153fd9e4f7a15e1eb19c62a4edca1fa4a92af3

Еще никто не оставлял запись к записи скачать торрент Bill Doggett - Wow! - . Будь первым!

!Обратная связь