Скачать через торрент музыку Oz Noy - Twisted Blues Volume 1 - 2011, FLAC бесплатно без регистрации torrent

Если у вас наблюдаются проблемы со скриншотами, переходом по ссылками, скачиванием торрентов - проблемы в блокировщике рекламы AdBlock. #хорошегоДня!


Статистика раздачи
Размер:  336 MB   |    Зарегистрирован:  5 лет 8 месяцев   |    .torrent скачан:  21 раз   |   
Раздают:  1  
   
Загрузка...
 
Автор Сообщение

Umakiro

avatar Umakiro


Oz Noy - Twisted Blues Volume 1

Жанр: Progressive Jazz, Fusion, Jazz-Rock
Год издания диска: 2011
Издатель (лейбл): Abstract Logix
Номер по каталогу: ABLX032
Аудиокодек: FLAC (*.flac)
Тип рипа: tracks+.cue
Битрейт аудио: lossless
Продолжительность: 00:52:50
Источник (релизер): сеть
Наличие сканов в содержимом раздачи: да
01. Twisted Blues [05:48]
02. Oh Really? [05:35]
03. You Are The State [07:03]
04. Whole Tone Blues [05:53]
05. Cissy Strut [05:46]
06. Light Blue [04:22]
07. Steroids [05:43]
08. Two Centers [08:06]
09. Trinkle Tinkle [04:29]
 
Exact Audio Copy V1.0 beta 1 from 15. November 2010

EAC extraction logfile from 8. December 2011, 18:47

Oz Noy / Twisted Blues Volume 1

Used drive : TSSTcorpCDDVDW SH-S203N Adapter: 0 ID: 2

Read mode : SecureUtilize accurate stream : YesDefeat audio cache : YesMake use of C2 pointers : No

Read offset correction : 6Overread into Lead-In and Lead-Out : NoFill up missing offset samples with silence : YesDelete leading and trailing silent blocks : NoNull samples used in CRC calculations : YesUsed interface : Installed external ASPI interfaceGap handling : Appended to previous track

Used output format : User Defined EncoderSelected bitrate : 768 kBit/sQuality : HighAdd ID3 tag : NoCommand line compressor : C:\Program Files\Exact Audio Copy-NEW\Flac\flac.exeAdditional command line options : -8 -V -T "ARTIST=%a" -T "TITLE=%t" -T "ALBUM=%g" -T "DATE=%y" -T "TRACKNUMBER=%n" -T "TOTALTRACKS=%x" -T "GENRE=%m" -T "ALBUMARTIST=%v" -T "ALBUM ARTIST=%v" -T "COMMENT=EAC V1.01b1, Secure Mode, Test & Copy, AccurateRip, FL

TOC of the extracted CD

Track | Start | Length | Start sector | End sector --------------------------------------------------------- 1 | 0:00.00 | 5:48.41 | 0 | 26140 2 | 5:48.41 | 5:35.56 | 26141 | 51321 3 | 11:24.22 | 7:03.14 | 51322 | 83060 4 | 18:27.36 | 5:53.57 | 83061 | 109592 5 | 24:21.18 | 5:46.20 | 109593 | 135562 6 | 30:07.38 | 4:22.44 | 135563 | 155256 7 | 34:30.07 | 5:43.48 | 155257 | 181029 8 | 40:13.55 | 8:06.44 | 181030 | 217523 9 | 48:20.24 | 4:29.69 | 217524 | 237767

Track 1

Filename J:\New Rips\Oz Noy - Twisted Blues Volume 1 (2011) [FLAC]\01 - Twisted Blues.wav

Pre-gap length 0:00:02.00

Peak level 100.0 % Extraction speed 4.9 X Track quality 100.0 % Test CRC 00235624 Copy CRC 00235624 Track not present in AccurateRip database Copy OK

Track 2

Filename J:\New Rips\Oz Noy - Twisted Blues Volume 1 (2011) [FLAC]\02 - Oh Really.wav

Pre-gap length 0:00:02.19

Peak level 100.0 % Extraction speed 5.6 X Track quality 100.0 % Test CRC 8D64F116 Copy CRC 8D64F116 Track not present in AccurateRip database Copy OK

Track 3

Filename J:\New Rips\Oz Noy - Twisted Blues Volume 1 (2011) [FLAC]\03 - You Are The State.wav

Pre-gap length 0:00:02.30

Peak level 100.0 % Extraction speed 6.4 X Track quality 100.0 % Test CRC 8D7F894A Copy CRC 8D7F894A Track not present in AccurateRip database Copy OK

Track 4

Filename J:\New Rips\Oz Noy - Twisted Blues Volume 1 (2011) [FLAC]\04 - Whole Tone Blues.wav

Pre-gap length 0:00:02.00

Peak level 100.0 % Extraction speed 6.9 X Track quality 100.0 % Test CRC 9392B14F Copy CRC 9392B14F Track not present in AccurateRip database Copy OK

Track 5

Filename J:\New Rips\Oz Noy - Twisted Blues Volume 1 (2011) [FLAC]\05 - Cissy Strut.wav

Pre-gap length 0:00:02.00

Peak level 100.0 % Extraction speed 7.3 X Track quality 100.0 % Test CRC 1EF9BAD5 Copy CRC 1EF9BAD5 Track not present in AccurateRip database Copy OK

Track 6

Filename J:\New Rips\Oz Noy - Twisted Blues Volume 1 (2011) [FLAC]\06 - Light Blue.wav

Pre-gap length 0:00:02.38

Peak level 100.0 % Extraction speed 7.5 X Track quality 100.0 % Test CRC 8E5B4EA5 Copy CRC 8E5B4EA5 Track not present in AccurateRip database Copy OK

Track 7

Filename J:\New Rips\Oz Noy - Twisted Blues Volume 1 (2011) [FLAC]\07 - Steroids.wav

Pre-gap length 0:00:02.00

Peak level 100.0 % Extraction speed 8.1 X Track quality 100.0 % Test CRC 09727D9F Copy CRC 09727D9F Track not present in AccurateRip database Copy OK

Track 8

Filename J:\New Rips\Oz Noy - Twisted Blues Volume 1 (2011) [FLAC]\08 - Two Centers.wav

Pre-gap length 0:00:02.19

Peak level 100.0 % Extraction speed 8.9 X Track quality 100.0 % Test CRC 199DCF6F Copy CRC 199DCF6F Track not present in AccurateRip database Copy OK

Track 9

Filename J:\New Rips\Oz Noy - Twisted Blues Volume 1 (2011) [FLAC]\09 - Trinkle Tinkle.wav

Pre-gap length 0:00:02.00

Peak level 100.0 % Extraction speed 8.7 X Track quality 100.0 % Test CRC D2B126E7 Copy CRC D2B126E7 Track not present in AccurateRip database Copy OK

None of the tracks are present in the AccurateRip database

No errors occurred

End of status report

==== Log checksum F9F53985C8DFADE5CCD1E1F6B7621EF01668A345F50F891C3390570DFA4B29F8 ====
 
REM GENRE JazzREM DATE 2011REM DISCID 6D0C6209REM COMMENT "ExactAudioCopy v1.0b1"PERFORMER "Oz Noy"TITLE "Twisted Blues Volume 1"FILE "01 - Twisted Blues.flac" WAVE TRACK 01 AUDIO TITLE "Twisted Blues" PERFORMER "Oz Noy" INDEX 01 00:00:00 TRACK 02 AUDIO TITLE "Oh Really" PERFORMER "Oz Noy" INDEX 00 05:46:22FILE "02 - Oh Really.flac" WAVE INDEX 01 00:00:00 TRACK 03 AUDIO TITLE "You Are The State" PERFORMER "Oz Noy" INDEX 00 05:33:26FILE "03 - You Are The State.flac" WAVE INDEX 01 00:00:00 TRACK 04 AUDIO TITLE "Whole Tone Blues" PERFORMER "Oz Noy" INDEX 00 07:01:14FILE "04 - Whole Tone Blues.flac" WAVE INDEX 01 00:00:00 TRACK 05 AUDIO TITLE "Cissy Strut" PERFORMER "Oz Noy" INDEX 00 05:51:57FILE "05 - Cissy Strut.flac" WAVE INDEX 01 00:00:00 TRACK 06 AUDIO TITLE "Light Blue" PERFORMER "Oz Noy" INDEX 00 05:43:57FILE "06 - Light Blue.flac" WAVE INDEX 01 00:00:00 TRACK 07 AUDIO TITLE "Steroids" PERFORMER "Oz Noy" INDEX 00 04:20:44FILE "07 - Steroids.flac" WAVE INDEX 01 00:00:00 TRACK 08 AUDIO TITLE "Two Centers" PERFORMER "Oz Noy" INDEX 00 05:41:29FILE "08 - Two Centers.flac" WAVE INDEX 01 00:00:00 TRACK 09 AUDIO TITLE "Trinkle Tinkle" PERFORMER "Oz Noy" INDEX 00 08:04:44FILE "09 - Trinkle Tinkle.flac" WAVE INDEX 01 00:00:00
Oz Noy (Guitar)
Eric Johnson (Guitar)
Will Lee (Bass)
Roscoe Beck (Bass)
Anton Fig (Drums)
Vinnie Colaiuta (Drums)
Chris Layton (Drums)
Jerry Z (Organ)
John Medeski (Organ)
Reese Wynans (Organ)
Allen Toussaint (Piano)
Ralph McDonald (Percussion)


Трекер:  [ 29-Янв-2012 15:05 ]

  

Скачать .torrent

Размер .torrent файла 14 KB


Размер: 336 MB
Хэш (hash) релиза: eb79f2835fb9701403c4bc8db5f3fafa40970931

Еще никто не оставлял запись к записи скачать торрент Oz Noy - Twisted Blues Volume 1 - 2011, FLAC . Будь первым!

!Обратная связь