Скачать через торрент музыку Giorgio Azzolini - Crucial Moment - 2002, FLAC бесплатно без регистрации torrent

Если у вас наблюдаются проблемы со скриншотами, переходом по ссылками, скачиванием торрентов - проблемы в блокировщике рекламы AdBlock. #хорошегоДня!


Статистика раздачи
Размер:  130 MB   |    Зарегистрирован:  5 лет 8 месяцев   |    .torrent скачан:  17 раз   |   
Раздают:  1  
   
Загрузка...
 
Автор Сообщение

Umakiro

avatar Umakiro


Giorgio Azzolini - Crucial Moment

Жанр: Free Jazz
Страна-производитель диска: Italy
Год издания диска: 2002
Издатель (лейбл): Rearward
Номер по каталогу: RW111 CD
Страна: Milan Italy
Аудиокодек: FLAC (*.flac)
Тип рипа: tracks+.cue
Битрейт аудио: lossless
Продолжительность: 00:31:51
Источник (релизер): mishka1981
Наличие сканов в содержимом раздачи: да
01. Crucial Moment [05:07]
02. Giorvi [04:10]
03. Blues Deflection [04:52]
04. Beyond The Corner [07:24]
05. Free Duet [06:02]
06. Israel [04:14]
 
Exact Audio Copy V1.0 beta 1 from 15. November 2010

EAC extraction logfile from 23. December 2011, 14:49

Giorgio Azzolini / Crucial Moment

Used drive : Optiarc DVD RW AD-7710H Adapter: 1 ID: 0

Read mode : SecureUtilize accurate stream : YesDefeat audio cache : YesMake use of C2 pointers : No

Read offset correction : 48Overread into Lead-In and Lead-Out : NoFill up missing offset samples with silence : YesDelete leading and trailing silent blocks : NoNull samples used in CRC calculations : YesUsed interface : Native Win32 interface for Win NT & 2000Gap handling : Appended to previous track

Used output format : User Defined EncoderSelected bitrate : 896 kBit/sQuality : HighAdd ID3 tag : NoCommand line compressor : C:\Program Files\Exact Audio Copy\FLAC\FLAC.EXEAdditional command line options : -8 -V -T "ARTIST=%a" -T "TITLE=%t" -T "ALBUM=%g" -T "DATE=%y" -T "TRACKNUMBER=%n" -T "GENRE=%m" -T "COMMENT=%e" %j--picture="%i"%j %s -o %d

TOC of the extracted CD

Track | Start | Length | Start sector | End sector --------------------------------------------------------- 1 | 0:00.00 | 5:07.35 | 0 | 23059 2 | 5:07.35 | 4:10.64 | 23060 | 41873 3 | 9:18.24 | 4:52.38 | 41874 | 63811 4 | 14:10.62 | 7:24.61 | 63812 | 97172 5 | 21:35.48 | 6:02.01 | 97173 | 124323 6 | 27:37.49 | 4:14.02 | 124324 | 143375

Track 1

Filename C:\MY RIPS\01 - Crucial Moment.wav

Pre-gap length 0:00:02.00

Peak level 100.0 % Extraction speed 2.4 X Track quality 99.9 % Test CRC 4B391605 Copy CRC 4B391605 Track not present in AccurateRip database Copy OK

Track 2

Filename C:\MY RIPS\02 - Giorvi.wav

Pre-gap length 0:00:02.00

Peak level 100.0 % Extraction speed 3.1 X Track quality 100.0 % Test CRC 090A7835 Copy CRC 090A7835 Track not present in AccurateRip database Copy OK

Track 3

Filename C:\MY RIPS\03 - Blues Deflection.wav

Pre-gap length 0:00:02.00

Peak level 100.0 % Extraction speed 3.4 X Track quality 100.0 % Test CRC 7E3AAC78 Copy CRC 7E3AAC78 Track not present in AccurateRip database Copy OK

Track 4

Filename C:\MY RIPS\04 - Beyond The Corner.wav

Pre-gap length 0:00:02.00

Peak level 100.0 % Extraction speed 4.0 X Track quality 100.0 % Test CRC 5F05C1BE Copy CRC 5F05C1BE Track not present in AccurateRip database Copy OK

Track 5

Filename C:\MY RIPS\05 - Free Duet.wav

Pre-gap length 0:00:02.00

Peak level 96.5 % Extraction speed 4.3 X Track quality 100.0 % Test CRC ADEA8FC2 Copy CRC ADEA8FC2 Track not present in AccurateRip database Copy OK

Track 6

Filename C:\MY RIPS\06 - Israel.wav

Pre-gap length 0:00:02.00

Peak level 99.3 % Extraction speed 3.7 X Track quality 99.9 % Test CRC EE6B52A8 Copy CRC EE6B52A8 Track not present in AccurateRip database Copy OK

None of the tracks are present in the AccurateRip database

No errors occurred

End of status report

==== Log checksum 9AF5FA12C215ED60B94492EA62AA203BB7C68D479023D978A2C59EC7B80B0B7E ====
 
REM GENRE JazzREM DISCID 50077706REM COMMENT "ExactAudioCopy v1.0b1"PERFORMER "Giorgio Azzolini"TITLE "Crucial Moment"FILE "01 - Crucial Moment.wav" WAVE TRACK 01 AUDIO TITLE "Crucial Moment" PERFORMER "Giorgio Azzolini" INDEX 01 00:00:00 TRACK 02 AUDIO TITLE "Giorvi" PERFORMER "Giorgio Azzolini" INDEX 00 05:05:35FILE "02 - Giorvi.wav" WAVE INDEX 01 00:00:00 TRACK 03 AUDIO TITLE "Blues Deflection" PERFORMER "Giorgio Azzolini" INDEX 00 04:08:64FILE "03 - Blues Deflection.wav" WAVE INDEX 01 00:00:00 TRACK 04 AUDIO TITLE "Beyond The Corner" PERFORMER "Giorgio Azzolini" INDEX 00 04:50:38FILE "04 - Beyond The Corner.wav" WAVE INDEX 01 00:00:00 TRACK 05 AUDIO TITLE "Free Duet" PERFORMER "Giorgio Azzolini" INDEX 00 07:22:61FILE "05 - Free Duet.wav" WAVE INDEX 01 00:00:00 TRACK 06 AUDIO TITLE "Israel" PERFORMER "Giorgio Azzolini" INDEX 00 06:00:01FILE "06 - Israel.wav" WAVE INDEX 01 00:00:00
Enrico Rava - trumpet
Giorgio Azzolini - bass
Franco D'Andrea - piano
Aldo Romano - drums


Трекер:  [ 29-Янв-2012 15:05 ]

  

Скачать .torrent

Размер .torrent файла 11 KB


Размер: 130 MB
Хэш (hash) релиза: e6262dfcbd51d46a6195cb8c705673121067d406

Еще никто не оставлял запись к записи скачать торрент Giorgio Azzolini - Crucial Moment - 2002, FLAC . Будь первым!

!Обратная связь