Скачать через торрент музыку Johnny Griffin feat. Paul Bryant - Grab This! - 2001, APE бесплатно без регистрации torrent

Если у вас наблюдаются проблемы со скриншотами, переходом по ссылками, скачиванием торрентов - проблемы в блокировщике рекламы AdBlock. #хорошегоДня!


Статистика раздачи
Размер:  244 MB   |    Зарегистрирован:  5 лет 8 месяцев   |    .torrent скачан:  22 раза   |   
Раздают:  1  
   
Загрузка...
 
Автор Сообщение

Umakiro

avatar Umakiro


Johnny Griffin feat. Paul Bryant - Grab This!

Жанр: Bop, Hard Bop
Страна-производитель диска: USA
Год издания диска: 2001
Издатель (лейбл): Riverside/OJC
Номер по каталогу: RLP-9437/OJCCD-1941-2
Страна: US Chicago, IL
Аудиокодек: APE (*.ape)
Тип рипа: image+.cue
Битрейт аудио: lossless
Продолжительность: 00:38:44
Источник (релизер): Oceandrop
Наличие сканов в содержимом раздачи: да
01. Grab This! [06:06]
02. 63rd Street Theme [05:34]
03. Don't Get Aroung Much Anymore [08:37]
04. Offering Time [06:16]
05. These Foolish Things [06:39]
06. Cherry Float [05:29]
 
EAC extraction logfile from 16. June 2007, 16:52 for CDJohnny Griffin / Grab This!

Used drive : SAMSUNG CDRW/DVD SM-352B Adapter: 1 ID: 0Read mode : Secure with NO C2, accurate stream, disable cacheRead offset correction : 6Overread into Lead-In and Lead-Out : No

Used output format : Monkey's Audio Lossless Encoder v3.99 DLL High Lossless Compression

Other options : Fill up missing offset samples with silence : Yes Delete leading and trailing silent blocks : No Installed external ASPI interface

Range status and errorsSelected range Filename C:\Documents and Settings\Lok\My Documents\Johnny Griffin - Grab This!\Johnny Griffin - Grab This!.ape

Peak level 100.0 % Range quality 100.0 % CRC 0F1AB771 Copy OK

No errors occured

End of status report
 
REM GENRE JazzREM DATE 1962REM DISCID 4F091406REM COMMENT "ExactAudioCopy v0.95b4"PERFORMER "Johnny Griffin"TITLE "Grab This!"FILE "Johnny Griffin - Grab This!.ape" WAVE TRACK 01 AUDIO TITLE "Grab This!" PERFORMER "Johnny Griffin" INDEX 01 00:00:00 TRACK 02 AUDIO TITLE "63rd Street Theme" PERFORMER "Johnny Griffin" INDEX 00 06:03:62 INDEX 01 06:06:10 TRACK 03 AUDIO TITLE "Don't Get Aroung Much Anymore" PERFORMER "Johnny Griffin" INDEX 00 11:38:10 INDEX 01 11:40:70 TRACK 04 AUDIO TITLE "Offering Time" PERFORMER "Johnny Griffin" INDEX 00 20:15:10 INDEX 01 20:18:10 TRACK 05 AUDIO TITLE "These Foolish Things" PERFORMER "Johnny Griffin" INDEX 00 26:31:65 INDEX 01 26:34:50 TRACK 06 AUDIO TITLE "Cherry Float" PERFORMER "Johnny Griffin" INDEX 00 33:12:37 INDEX 01 33:14:37
Johnny Griffin - tenor saxophone
Paul Bryant - organ
Joe Pass - guitar
Jimmy Bond - bass
Doug Sides - drums
 
[CUETools log; Date: 23.12.2011 20:37:29; Version: 2.0.9][CTDB TOCID: aOyMpl.T2sbReH_13M5g3cX9d4c-] found. [ CTDBID ] Status [029328da] (4/4) Accurately ripped[AccurateRip ID: 00096200-003242f2-4f091406] found.Track [ CRC ] Status 01 [ba1780e5] (4/4) Accurately ripped 02 [fe381115] (4/4) Accurately ripped 03 [ecc2f258] (4/4) Accurately ripped 04 [bddf92f7] (4/4) Accurately ripped 05 [74d5ca95] (4/4) Accurately ripped 06 [6a82530e] (4/4) Accurately ripped

Track Peak [ CRC32 ] [W/O NULL] [ LOG ] -- 100,0 [0F1AB771] [886745F9] CRC32 01 99,7 [C1D495AF] [1EA1BAAA] 02 99,6 [3797AC1A] [4ED9BCE3] 03 100,0 [5CEA1A7B] [D19AA542] 04 100,0 [C6CDCEB1] [74060A92] 05 93,6 [4EAAF9DF] [D42CB81B] 06 99,9 [F7139D3C] [B4413836]


Трекер:  [ 29-Янв-2012 15:04 ]

  

Скачать .torrent

Размер .torrent файла 20 KB


Размер: 244 MB
Хэш (hash) релиза: 22d78ea4560d06e71802e2686ba04bf910ab3bba

Еще никто не оставлял запись к записи скачать торрент Johnny Griffin feat. Paul Bryant - Grab This! - 2001, APE . Будь первым!

!Обратная связь