Скачать через торрент музыку Roy Haynes - Birds of a Feather: A Tribute to Charlie Parker - 2001, FLAC бесплатно без регистрации torrent

Если у вас наблюдаются проблемы со скриншотами, переходом по ссылками, скачиванием торрентов - проблемы в блокировщике рекламы AdBlock. #хорошегоДня!


Статистика раздачи
Размер:  432 MB   |    Зарегистрирован:  5 лет 8 месяцев   |    .torrent скачан:  25 раз   |   
Раздают:  1  
   
Загрузка...
 
Автор Сообщение

Umakiro

avatar Umakiro


Roy Haynes - Birds of a Feather: A Tribute to Charlie Parker

Жанр: Hard Bop, Neo-Bop
Страна-производитель диска: US
Год издания диска: 2001
Издатель (лейбл): Dreyfus Records
Номер по каталогу: FDM 36625-2
Страна: US Roxbury, MA
Аудиокодек: FLAC (*.flac)
Тип рипа: tracks+.cue
Битрейт аудио: lossless
Продолжительность: 01:04:43
Источник (релизер): mishka1981
Наличие сканов в содержимом раздачи: да
01. Diverse [05:20]
02. Ah Leu Cha [05:14]
03. April In Paris [05:14]
04. Moose The Mooch [05:40]
05. Now's The Time [06:05]
06. Rocker [06:02]
07. Barbados [05:03]
08. Yardbird Suite [04:48]
09. The Gypsy [06:44]
10. My Heart Belongs To Daddy [07:02]
11. What Is This Thing Called Love? [07:24]
 
Exact Audio Copy V1.0 beta 1 from 15. November 2010

EAC extraction logfile from 24. December 2011, 15:05

Roy Haynes / Birds Of A Feather - A Tribute To Charlie Parker

Used drive : TSSTcorpCDDVDW TS-L633A Adapter: 3 ID: 0

Read mode : SecureUtilize accurate stream : YesDefeat audio cache : YesMake use of C2 pointers : No

Read offset correction : 6Overread into Lead-In and Lead-Out : NoFill up missing offset samples with silence : YesDelete leading and trailing silent blocks : NoNull samples used in CRC calculations : YesUsed interface : Installed external ASPI interfaceGap handling : Appended to previous track

Used output format : User Defined EncoderSelected bitrate : 896 kBit/sQuality : HighAdd ID3 tag : NoCommand line compressor : C:\Program Files\Exact Audio Copy\FLAC\FLAC.EXEAdditional command line options : -8 -V -T "ARTIST=%a" -T "TITLE=%t" -T "ALBUM=%g" -T "DATE=%y" -T "TRACKNUMBER=%n" -T "TOTALTRACKS=%x" -T "GENRE=%m" -T "ALBUMARTIST=%v" -T "ALBUM ARTIST=%v" -T "COMMENT=EAC Secure Mode, Test & Copy, AccurateRip, FLAC -8" %s

TOC of the extracted CD

Track | Start | Length | Start sector | End sector --------------------------------------------------------- 1 | 0:00.00 | 5:20.12 | 0 | 24011 2 | 5:20.12 | 5:14.50 | 24012 | 47611 3 | 10:34.62 | 5:14.60 | 47612 | 71221 4 | 15:49.47 | 5:40.68 | 71222 | 96789 5 | 21:30.40 | 6:05.52 | 96790 | 124216 6 | 27:36.17 | 6:02.68 | 124217 | 151434 7 | 33:39.10 | 5:03.72 | 151435 | 174231 8 | 38:43.07 | 4:48.48 | 174232 | 195879 9 | 43:31.55 | 6:44.15 | 195880 | 226194 10 | 50:15.70 | 7:02.72 | 226195 | 257916 11 | 57:18.67 | 7:24.20 | 257917 | 291236

Track 1

Filename C:\MY RIPS\01 - Diverse.wav

Pre-gap length 0:00:02.00

Peak level 100.0 % Extraction speed 1.1 X Track quality 100.0 % Test CRC AA92EA4D Copy CRC AA92EA4D Accurately ripped (confidence 2) [F4D87D38] Copy OK

Track 2

Filename C:\MY RIPS\02 - Ah Leu Cha.wav

Peak level 100.0 % Extraction speed 1.3 X Track quality 100.0 % Test CRC 7B88D026 Copy CRC 7B88D026 Accurately ripped (confidence 2) [0B54C389] Copy OK

Track 3

Filename C:\MY RIPS\03 - April In Paris.wav

Pre-gap length 0:00:00.60

Peak level 100.0 % Extraction speed 1.2 X Track quality 99.9 % Test CRC 4DF821D9 Copy CRC 4DF821D9 Accurately ripped (confidence 2) [BF1D4340] Copy OK

Track 4

Filename C:\MY RIPS\04 - Moose The Mooch.wav

Pre-gap length 0:00:00.15

Peak level 100.0 % Extraction speed 1.5 X Track quality 100.0 % Test CRC C17E8E0C Copy CRC C17E8E0C Accurately ripped (confidence 2) [628A897B] Copy OK

Track 5

Filename C:\MY RIPS\05 - Now's The Time.wav

Pre-gap length 0:00:00.30

Peak level 100.0 % Extraction speed 1.7 X Track quality 100.0 % Test CRC B601D49B Copy CRC B601D49B Accurately ripped (confidence 2) [A48BCF3F] Copy OK

Track 6

Filename C:\MY RIPS\06 - Rocker.wav

Pre-gap length 0:00:01.45

Peak level 100.0 % Extraction speed 1.8 X Track quality 100.0 % Test CRC 3F7AE26C Copy CRC 3F7AE26C Accurately ripped (confidence 2) [64F253FC] Copy OK

Track 7

Filename C:\MY RIPS\07 - Barbados.wav

Pre-gap length 0:00:00.10

Peak level 100.0 % Extraction speed 1.8 X Track quality 100.0 % Test CRC 73ACC4BF Copy CRC 73ACC4BF Accurately ripped (confidence 2) [FA85B566] Copy OK

Track 8

Filename C:\MY RIPS\08 - Yardbird Suite.wav

Pre-gap length 0:00:01.02

Peak level 100.0 % Extraction speed 1.9 X Track quality 100.0 % Test CRC 1452B7AC Copy CRC 1452B7AC Accurately ripped (confidence 2) [E7E8955C] Copy OK

Track 9

Filename C:\MY RIPS\09 - The Gypsy.wav

Pre-gap length 0:00:01.03

Peak level 100.0 % Extraction speed 2.1 X Track quality 100.0 % Test CRC BD6D216B Copy CRC BD6D216B Accurately ripped (confidence 2) [25AE4C52] Copy OK

Track 10

Filename C:\MY RIPS\10 - My Heart Belongs To Daddy.wav

Peak level 100.0 % Extraction speed 2.2 X Track quality 100.0 % Test CRC D18FD1E4 Copy CRC D18FD1E4 Accurately ripped (confidence 2) [05F6A467] Copy OK

Track 11

Filename C:\MY RIPS\11 - What Is This Thing Called Love.wav

Pre-gap length 0:00:00.15

Peak level 100.0 % Extraction speed 2.3 X Track quality 100.0 % Test CRC E91F66A0 Copy CRC E91F66A0 Accurately ripped (confidence 6) [431FC6C7] Copy OK

All tracks accurately ripped

No errors occurred

End of status report

==== Log checksum 5233FDCA52D85E83F39B594330F375A587B5877CFB431CD140929F87A9EC6A1A ====
 
REM GENRE JazzREM DATE 2001REM DISCID 7C0F2B0BREM COMMENT "ExactAudioCopy v1.0b1"PERFORMER "Roy Haynes"TITLE "Birds Of A Feather - A Tribute To Charlie Parker"FILE "01 - Diverse.wav" WAVE TRACK 01 AUDIO TITLE "Diverse" PERFORMER "Roy Haynes" INDEX 01 00:00:00FILE "02 - Ah Leu Cha.wav" WAVE TRACK 02 AUDIO TITLE "Ah Leu Cha" PERFORMER "Roy Haynes" INDEX 01 00:00:00 TRACK 03 AUDIO TITLE "April In Paris" PERFORMER "Roy Haynes" INDEX 00 05:13:65FILE "03 - April In Paris.wav" WAVE INDEX 01 00:00:00 TRACK 04 AUDIO TITLE "Moose The Mooch" PERFORMER "Roy Haynes" INDEX 00 05:14:45FILE "04 - Moose The Mooch.wav" WAVE INDEX 01 00:00:00 TRACK 05 AUDIO TITLE "Now's The Time" PERFORMER "Roy Haynes" INDEX 00 05:40:38FILE "05 - Now's The Time.wav" WAVE INDEX 01 00:00:00 TRACK 06 AUDIO TITLE "Rocker" PERFORMER "Roy Haynes" INDEX 00 06:04:07FILE "06 - Rocker.wav" WAVE INDEX 01 00:00:00 TRACK 07 AUDIO TITLE "Barbados" PERFORMER "Roy Haynes" INDEX 00 06:02:58FILE "07 - Barbados.wav" WAVE INDEX 01 00:00:00 TRACK 08 AUDIO TITLE "Yardbird Suite" PERFORMER "Roy Haynes" INDEX 00 05:02:70FILE "08 - Yardbird Suite.wav" WAVE INDEX 01 00:00:00 TRACK 09 AUDIO TITLE "The Gypsy" PERFORMER "Roy Haynes" INDEX 00 04:47:45FILE "09 - The Gypsy.wav" WAVE INDEX 01 00:00:00FILE "10 - My Heart Belongs To Daddy.wav" WAVE TRACK 10 AUDIO TITLE "My Heart Belongs To Daddy" PERFORMER "Roy Haynes" INDEX 01 00:00:00 TRACK 11 AUDIO TITLE "What Is This Thing Called Love?" PERFORMER "Roy Haynes" INDEX 00 07:02:57FILE "11 - What Is This Thing Called Love.wav" WAVE INDEX 01 00:00:00
Roy Haynes (drums)
Kenny Garrett (alto saxophone)
Roy Hargrove (trumpet)
Dave Kikoswki (piano)
Dave Holland (bass)


Трекер:  [ 29-Янв-2012 15:04 ]

  

Скачать .torrent

Размер .torrent файла 18 KB


Размер: 432 MB
Хэш (hash) релиза: 83a60a1d0df30aa7bffb46b135a44b83cd4a691f

Еще никто не оставлял запись к записи скачать торрент Roy Haynes - Birds of a Feather: A Tribute to Charlie Parker - 2001, FLAC . Будь первым!

!Обратная связь