Скачать через торрент музыку Tom Beckham - Center Songs - 2006, FLAC бесплатно без регистрации torrent

Если у вас наблюдаются проблемы со скриншотами, переходом по ссылками, скачиванием торрентов - проблемы в блокировщике рекламы AdBlock. #хорошегоДня!


Статистика раздачи
Размер:  385 MB   |    Зарегистрирован:  5 лет 8 месяцев   |    .torrent скачан:  22 раза   |   
Раздают:  1  
   
Загрузка...
 
Автор Сообщение

Umakiro

avatar Umakiro


Tom Beckham - Center Songs

Жанр: Mainstream Jazz, Vibraphone
Страна-производитель диска: USA
Год издания диска: 2006
Издатель (лейбл): Sunnyside Records
Номер по каталогу: SSC4502
Страна: USA, Maryland
Аудиокодек: FLAC (*.flac)
Тип рипа: tracks+.cue
Битрейт аудио: lossless
Продолжительность: 01:01:11
Источник (релизер): сеть
Наличие сканов в содержимом раздачи: да
01. Zero Gravity Situation [07:14]
02. Visitation [05:55]
03. Charger [06:07]
04. The Mansion [09:39]
05. Roll 'Em [06:23]
06. Two Part Convention [06:21]
07. Sleuth [06:31]
08. Exhale [07:03]
09. Center Song [05:54]
 
Exact Audio Copy V1.0 beta 1 from 15. November 2010

EAC extraction logfile from 23. December 2011, 1:47

Tom Beckham / Center Songs

Used drive : TSSTcorpCDDVDW SH-S203N Adapter: 0 ID: 2

Read mode : SecureUtilize accurate stream : YesDefeat audio cache : YesMake use of C2 pointers : No

Read offset correction : 6Overread into Lead-In and Lead-Out : NoFill up missing offset samples with silence : YesDelete leading and trailing silent blocks : NoNull samples used in CRC calculations : YesUsed interface : Installed external ASPI interfaceGap handling : Appended to previous track

Used output format : User Defined EncoderSelected bitrate : 768 kBit/sQuality : HighAdd ID3 tag : NoCommand line compressor : C:\Program Files\Exact Audio Copy-NEW\Flac\flac.exeAdditional command line options : -8 -V -T "ARTIST=%a" -T "TITLE=%t" -T "ALBUM=%g" -T "DATE=%y" -T "TRACKNUMBER=%n" -T "TOTALTRACKS=%x" -T "GENRE=%m" -T "ALBUMARTIST=%v" -T "ALBUM ARTIST=%v" -T "COMMENT=EAC V1.01b1, Secure Mode, Test & Copy, AccurateRip, FL

TOC of the extracted CD

Track | Start | Length | Start sector | End sector --------------------------------------------------------- 1 | 0:00.00 | 7:16.10 | 0 | 32709 2 | 7:16.10 | 5:57.46 | 32710 | 59530 3 | 13:13.56 | 6:09.07 | 59531 | 87212 4 | 19:22.63 | 9:41.18 | 87213 | 130805 5 | 29:04.06 | 6:25.69 | 130806 | 159749 6 | 35:30.00 | 6:23.37 | 159750 | 188511 7 | 41:53.37 | 6:34.59 | 188512 | 218120 8 | 48:28.21 | 7:05.33 | 218121 | 250028 9 | 55:33.54 | 5:54.59 | 250029 | 276637

Track 1

Filename J:\New Rips\Tom Beckham - Center Songs (2005) [FLAC]\01 - Zero Gravity Situation.wav

Pre-gap length 0:00:02.00

Peak level 99.9 % Extraction speed 4.9 X Track quality 100.0 % Test CRC F8FEFEBC Copy CRC F8FEFEBC Accurately ripped (confidence 1) [07E1CC9A] Copy OK

Track 2

Filename J:\New Rips\Tom Beckham - Center Songs (2005) [FLAC]\02 - Visitation.wav

Pre-gap length 0:00:02.00

Peak level 99.9 % Extraction speed 4.8 X Track quality 99.9 % Test CRC 8B5E09B7 Copy CRC 8B5E09B7 Accurately ripped (confidence 1) [576C578C] Copy OK

Track 3

Filename J:\New Rips\Tom Beckham - Center Songs (2005) [FLAC]\03 - Charger.wav

Pre-gap length 0:00:02.00

Peak level 99.9 % Extraction speed 6.2 X Track quality 100.0 % Test CRC F00CE3B1 Copy CRC F00CE3B1 Accurately ripped (confidence 1) [CC0DF95D] Copy OK

Track 4

Filename J:\New Rips\Tom Beckham - Center Songs (2005) [FLAC]\04 - The Mansion.wav

Pre-gap length 0:00:02.00

Peak level 99.9 % Extraction speed 7.2 X Track quality 100.0 % Test CRC ECD0D7A9 Copy CRC ECD0D7A9 Accurately ripped (confidence 1) [67C068E6] Copy OK

Track 5

Filename J:\New Rips\Tom Beckham - Center Songs (2005) [FLAC]\05 - Roll 'Em.wav

Pre-gap length 0:00:02.00

Peak level 99.9 % Extraction speed 7.6 X Track quality 100.0 % Test CRC 2665B803 Copy CRC 2665B803 Accurately ripped (confidence 1) [174C1780] Copy OK

Track 6

Filename J:\New Rips\Tom Beckham - Center Songs (2005) [FLAC]\06 - Two Part Convention.wav

Pre-gap length 0:00:02.00

Peak level 99.9 % Extraction speed 8.1 X Track quality 100.0 % Test CRC F0265867 Copy CRC F0265867 Accurately ripped (confidence 1) [24DA45C6] Copy OK

Track 7

Filename J:\New Rips\Tom Beckham - Center Songs (2005) [FLAC]\07 - Sleuth.wav

Pre-gap length 0:00:02.00

Peak level 99.9 % Extraction speed 8.6 X Track quality 100.0 % Test CRC 27B3A42A Copy CRC 27B3A42A Accurately ripped (confidence 1) [4A7DA819] Copy OK

Track 8

Filename J:\New Rips\Tom Beckham - Center Songs (2005) [FLAC]\08 - Exhale.wav

Pre-gap length 0:00:03.00

Peak level 99.9 % Extraction speed 9.1 X Track quality 100.0 % Test CRC 23F3EC2E Copy CRC 23F3EC2E Accurately ripped (confidence 1) [E1BE7CB6] Copy OK

Track 9

Filename J:\New Rips\Tom Beckham - Center Songs (2005) [FLAC]\09 - Center Song.wav

Pre-gap length 0:00:02.00

Peak level 99.9 % Extraction speed 9.3 X Track quality 100.0 % Test CRC 34004401 Copy CRC 34004401 Accurately ripped (confidence 1) [D6220B3E] Copy OK

All tracks accurately ripped

No errors occurred

End of status report

==== Log checksum 14537EE7A408B46CEEA9174F53BB88C2A9357DF6E683D0982D8D461E858906F3 ====
 
REM GENRE JazzREM DATE 2005REM DISCID 730E6809REM COMMENT "ExactAudioCopy v1.0b1"PERFORMER "Tom Beckham"TITLE "Center Songs"FILE "01 - Zero Gravity Situation.flac" WAVE TRACK 01 AUDIO TITLE "Zero Gravity Situation" PERFORMER "Tom Beckham" INDEX 01 00:00:00 TRACK 02 AUDIO TITLE "Visitation" PERFORMER "Tom Beckham" INDEX 00 07:14:10FILE "02 - Visitation.flac" WAVE INDEX 01 00:00:00 TRACK 03 AUDIO TITLE "Charger" PERFORMER "Tom Beckham" INDEX 00 05:55:46FILE "03 - Charger.flac" WAVE INDEX 01 00:00:00 TRACK 04 AUDIO TITLE "The Mansion" PERFORMER "Tom Beckham" INDEX 00 06:07:07FILE "04 - The Mansion.flac" WAVE INDEX 01 00:00:00 TRACK 05 AUDIO TITLE "Roll 'Em" PERFORMER "Tom Beckham" INDEX 00 09:39:18FILE "05 - Roll 'Em.flac" WAVE INDEX 01 00:00:00 TRACK 06 AUDIO TITLE "Two Part Convention" PERFORMER "Tom Beckham" INDEX 00 06:23:69FILE "06 - Two Part Convention.flac" WAVE INDEX 01 00:00:00 TRACK 07 AUDIO TITLE "Sleuth" PERFORMER "Tom Beckham" INDEX 00 06:21:37FILE "07 - Sleuth.flac" WAVE INDEX 01 00:00:00 TRACK 08 AUDIO TITLE "Exhale" PERFORMER "Tom Beckham" INDEX 00 06:31:59FILE "08 - Exhale.flac" WAVE INDEX 01 00:00:00 TRACK 09 AUDIO TITLE "Center Song" PERFORMER "Tom Beckham" INDEX 00 07:03:33FILE "09 - Center Song.flac" WAVE INDEX 01 00:00:00
Tom Beckham - vibraphone
Chris Cheek - saxophones
Henry Hey - piano
John Hebert - bass
Diego Voglino - drums


Трекер:  [ 29-Янв-2012 15:04 ]

  

Скачать .torrent

Размер .torrent файла 16 KB


Размер: 385 MB
Хэш (hash) релиза: e44bd91fcd2b5270142fe739fb0045d2ce7c36d0

Еще никто не оставлял запись к записи скачать торрент Tom Beckham - Center Songs - 2006, FLAC . Будь первым!

!Обратная связь