Скачать через торрент музыку Tony Dagradi - Sweet Remembrance - 1987, FLAC бесплатно без регистрации torrent

Если у вас наблюдаются проблемы со скриншотами, переходом по ссылками, скачиванием торрентов - проблемы в блокировщике рекламы AdBlock. #хорошегоДня!


Статистика раздачи
Размер:  236 MB   |    Зарегистрирован:  5 лет 8 месяцев   |    .torrent скачан:  23 раза   |   
Раздают:  1  
   
Загрузка...
 
Автор Сообщение

Umakiro

avatar Umakiro


Tony Dagradi - Sweet Remembrance

Жанр: Neo-Bop, Saxophone Jazz
Страна-производитель диска: USA
Год издания диска: 1987
Издатель (лейбл): Gramavision
Номер по каталогу: 18-8707-2
Страна: USA
Аудиокодек: FLAC (*.flac)
Тип рипа: tracks+.cue
Битрейт аудио: lossless
Продолжительность: 00:46:33
Источник (релизер): сеть
Наличие сканов в содержимом раздачи: да
01. Sat Guru Sawan Sha (Invocation) [04:21]
02. Chelo Ni Saiyo Sirsa (The Journey) [06:58]
03. Sohana Sha Kirpal Pyara (Ocean Of Love) [05:21]
04. Tu Mera Pita (Our Father) [04:31]
05. Mayro Mana Kyon Na Su Nay Dhuna Nama (Unstruck Sound) [01:34]
06. Sweet Remembrance [07:20]
07. Tati Vao Na Laga Di Ji (The Protecting Circle) [05:03]
08. Ute Jag Musaphir Bhor Bhai (Awakening) [05:19]
09. Sant Satguru Satta Swaroopa (O Transcendental Lord) [06:01]
 
Exact Audio Copy V1.0 beta 1 from 15. November 2010

EAC extraction logfile from 17. March 2011, 7:58

Tony Dagradi / Sweet Remembrance

Used drive : TSSTcorpCDDVDW SH-S203N Adapter: 0 ID: 2

Read mode : SecureUtilize accurate stream : YesDefeat audio cache : YesMake use of C2 pointers : No

Read offset correction : 6Overread into Lead-In and Lead-Out : NoFill up missing offset samples with silence : YesDelete leading and trailing silent blocks : NoNull samples used in CRC calculations : YesUsed interface : Installed external ASPI interfaceGap handling : Appended to previous track

Used output format : User Defined EncoderSelected bitrate : 768 kBit/sQuality : HighAdd ID3 tag : NoCommand line compressor : C:\Program Files\Exact Audio Copy-NEW\Flac\flac.exeAdditional command line options : -8 -V -T "ARTIST=%a" -T "TITLE=%t" -T "ALBUM=%g" -T "DATE=%y" -T "TRACKNUMBER=%n" -T "TOTALTRACKS=%x" -T "GENRE=%m" -T "ALBUMARTIST=%v" -T "ALBUM ARTIST=%v" -T "COMMENT=EAC V1.01b1, Secure Mode, Test & Copy, AccurateRip, FL

TOC of the extracted CD

Track | Start | Length | Start sector | End sector --------------------------------------------------------- 1 | 0:00.00 | 4:21.62 | 0 | 19636 2 | 4:21.62 | 6:58.70 | 19637 | 51056 3 | 11:20.57 | 5:21.23 | 51057 | 75154 4 | 16:42.05 | 4:31.20 | 75155 | 95499 5 | 21:13.25 | 1:34.27 | 95500 | 102576 6 | 22:47.52 | 7:20.35 | 102577 | 135611 7 | 30:08.12 | 5:03.53 | 135612 | 158389 8 | 35:11.65 | 5:19.67 | 158390 | 182381 9 | 40:31.57 | 6:01.43 | 182382 | 209499

Track 1

Filename J:\New Rips\Tony Dagradi - Sweet Remembrance (1987) [FLAC]\01 - Sat Guru Sawan Sha.wav

Pre-gap length 0:00:02.00

Peak level 74.9 % Extraction speed 4.7 X Track quality 100.0 % Test CRC 13784919 Copy CRC 13784919 Accurately ripped (confidence 1) [F0B5D27A] Copy OK

Track 2

Filename J:\New Rips\Tony Dagradi - Sweet Remembrance (1987) [FLAC]\02 - Chelo Ni Saiyo Sirsa.wav

Pre-gap length 0:00:03.20

Peak level 77.4 % Extraction speed 5.6 X Track quality 100.0 % Test CRC 0F734CE8 Copy CRC 0F734CE8 Accurately ripped (confidence 1) [61A40C85] Copy OK

Track 3

Filename J:\New Rips\Tony Dagradi - Sweet Remembrance (1987) [FLAC]\03 - Sohana Sha Kirpal Pyara.wav

Pre-gap length 0:00:01.32

Peak level 77.0 % Extraction speed 6.1 X Track quality 100.0 % Test CRC F52997B3 Copy CRC F52997B3 Accurately ripped (confidence 1) [DA104AB0] Copy OK

Track 4

Filename J:\New Rips\Tony Dagradi - Sweet Remembrance (1987) [FLAC]\04 - Tu Mera Pita.wav

Pre-gap length 0:00:01.55

Peak level 97.7 % Extraction speed 6.4 X Track quality 100.0 % Test CRC 0CD8DE30 Copy CRC 0CD8DE30 Accurately ripped (confidence 1) [1BBF616D] Copy OK

Track 5

Filename J:\New Rips\Tony Dagradi - Sweet Remembrance (1987) [FLAC]\05 - Mayro Mana Kyon Na Su Nay Dhuna Nama.wav

Pre-gap length 0:00:02.30

Peak level 39.5 % Extraction speed 5.3 X Track quality 100.0 % Test CRC EA823BD3 Copy CRC EA823BD3 Accurately ripped (confidence 1) [B1B7694D] Copy OK

Track 6

Filename J:\New Rips\Tony Dagradi - Sweet Remembrance (1987) [FLAC]\06 - Sweet Remembrance.wav

Pre-gap length 0:00:00.02

Peak level 97.7 % Extraction speed 7.4 X Track quality 100.0 % Test CRC 2E4A1433 Copy CRC 2E4A1433 Accurately ripped (confidence 1) [F40575F3] Copy OK

Track 7

Filename J:\New Rips\Tony Dagradi - Sweet Remembrance (1987) [FLAC]\07 - Tati Vao Na Laga Di Ji.wav

Pre-gap length 0:00:00.62

Peak level 86.5 % Extraction speed 7.5 X Track quality 100.0 % Test CRC 07AFDB7E Copy CRC 07AFDB7E Accurately ripped (confidence 1) [D2FF68A2] Copy OK

Track 8

Filename J:\New Rips\Tony Dagradi - Sweet Remembrance (1987) [FLAC]\08 - Ute Jag Musaphir Bhor Bhai.wav

Pre-gap length 0:00:02.63

Peak level 95.5 % Extraction speed 8.1 X Track quality 100.0 % Test CRC B7A1B07B Copy CRC B7A1B07B Accurately ripped (confidence 1) [A091E356] Copy OK

Track 9

Filename J:\New Rips\Tony Dagradi - Sweet Remembrance (1987) [FLAC]\09 - Sant Satguru Satta Swaroopa.wav

Pre-gap length 0:00:01.05

Peak level 85.8 % Extraction speed 8.4 X Track quality 100.0 % Test CRC 6DE7E7CA Copy CRC 6DE7E7CA Accurately ripped (confidence 1) [8822A6DA] Copy OK

All tracks accurately ripped

No errors occurred

End of status report

==== Log checksum D8F5BF4F31512678056D8142BEEAECE75EC77834C7F079CD82799FC7CD2F9E1D ====
 
REM GENRE JazzREM DATE 1987REM DISCID 610AE909REM COMMENT "ExactAudioCopy v1.0b1"PERFORMER "Tony Dagradi"TITLE "Sweet Remembrance"FILE "01 - Sat Guru Sawan Sha.flac" WAVE TRACK 01 AUDIO TITLE "Sat Guru Sawan Sha" PERFORMER "Tony Dagradi" INDEX 01 00:00:00 TRACK 02 AUDIO TITLE "Chelo Ni Saiyo Sirsa" PERFORMER "Tony Dagradi" INDEX 00 04:18:42FILE "02 - Chelo Ni Saiyo Sirsa.flac" WAVE INDEX 01 00:00:00 TRACK 03 AUDIO TITLE "Sohana Sha Kirpal Pyara" PERFORMER "Tony Dagradi" INDEX 00 06:57:38FILE "03 - Sohana Sha Kirpal Pyara.flac" WAVE INDEX 01 00:00:00 TRACK 04 AUDIO TITLE "Tu Mera Pita" PERFORMER "Tony Dagradi" INDEX 00 05:19:43FILE "04 - Tu Mera Pita.flac" WAVE INDEX 01 00:00:00 TRACK 05 AUDIO TITLE "Mayro Mana Kyon Na Su Nay Dhuna Nama" PERFORMER "Tony Dagradi" INDEX 00 04:28:65FILE "05 - Mayro Mana Kyon Na Su Nay Dhuna Nama.flac" WAVE INDEX 01 00:00:00 TRACK 06 AUDIO TITLE "Sweet Remembrance" PERFORMER "Tony Dagradi" INDEX 00 01:34:25FILE "06 - Sweet Remembrance.flac" WAVE INDEX 01 00:00:00 TRACK 07 AUDIO TITLE "Tati Vao Na Laga Di Ji" PERFORMER "Tony Dagradi" INDEX 00 07:19:48FILE "07 - Tati Vao Na Laga Di Ji.flac" WAVE INDEX 01 00:00:00 TRACK 08 AUDIO TITLE "Ute Jag Musaphir Bhor Bhai" PERFORMER "Tony Dagradi" INDEX 00 05:00:65FILE "08 - Ute Jag Musaphir Bhor Bhai.flac" WAVE INDEX 01 00:00:00 TRACK 09 AUDIO TITLE "Sant Satguru Satta Swaroopa" PERFORMER "Tony Dagradi" INDEX 00 05:18:62FILE "09 - Sant Satguru Satta Swaroopa.flac" WAVE INDEX 01 00:00:00
Saxophone - Tony Dagradi
Drums, Percussion - Bob Moses
Bass - Harvie Swartz
Piano - Fred Hersch
Tambourine - Lee Torchia
Tabla - Ray Spiegel


Трекер:  [ 29-Янв-2012 15:03 ]

  

Скачать .torrent

Размер .torrent файла 20 KB


Размер: 236 MB
Хэш (hash) релиза: d1c522c9fa3e2dbd522876cb59f21a0a7d6706c8

Еще никто не оставлял запись к записи скачать торрент Tony Dagradi - Sweet Remembrance - 1987, FLAC . Будь первым!

!Обратная связь