Скачать через торрент музыку Majid Bekkas - Mabrouk - 2011, FLAC бесплатно без регистрации torrent

Если у вас наблюдаются проблемы со скриншотами, переходом по ссылками, скачиванием торрентов - проблемы в блокировщике рекламы AdBlock. #хорошегоДня!


Статистика раздачи
Размер:  379 MB   |    Зарегистрирован:  5 лет 8 месяцев   |    .torrent скачан:  20 раз   |   
Раздают:  1  
   
Загрузка...
 
Автор Сообщение

Umakiro

avatar Umakiro


Majid Bekkas - Mabrouk

Жанр: World Fusion
Год издания диска: 2011
Издатель (лейбл): Bee Jazz
Номер по каталогу: BEE 003
Страна: Marocco
Аудиокодек: FLAC (*.flac)
Тип рипа: tracks+.cue
Битрейт аудио: lossless
Продолжительность: 00:39:54
Источник (релизер): сеть
Наличие сканов в содержимом раздачи: да
01. Banya [05:25]
02. Fangara [04:55]
03. Mabrouk [04:17]
04. Salya [03:43]
05. Masmoudi [06:56]
06. Bala Moussa [06:25]
07. Le Monde A L'envers [03:52]
08. Hommage Aux Ancetres [04:18]
 
Exact Audio Copy V1.0 beta 2 from 29. April 2011

EAC extraction logfile from 6. October 2011, 9:18

Majid Bekkas / Mabrouk

Used drive : PLEXTOR DVDR PX-L890SA Adapter: 2 ID: 1

Read mode : SecureUtilize accurate stream : YesDefeat audio cache : YesMake use of C2 pointers : No

Read offset correction : 6Overread into Lead-In and Lead-Out : NoFill up missing offset samples with silence : YesDelete leading and trailing silent blocks : NoNull samples used in CRC calculations : YesUsed interface : Native Win32 interface for Win NT & 2000Gap handling : Appended to previous track

Used output format : User Defined EncoderSelected bitrate : 256 kBit/sQuality : HighAdd ID3 tag : NoCommand line compressor : C:\Program Files (x86)\Exact Audio Copy\FLAC\FLAC.EXEAdditional command line options : -8 -V -T "ARTIST=%artist%" -T "TITLE=%title%" -T "ALBUM=%albumtitle%" -T "DATE=%year%" -T "TRACKNUMBER=%tracknr%" -T "TOTALTRACKS=%numtracks%" -T "GENRE=%genre%" -T "ALBUMARTIST=%albumartist%" -T "ALBUM ARTIST=%albumartist%

TOC of the extracted CD

Track | Start | Length | Start sector | End sector --------------------------------------------------------- 1 | 0:00.00 | 5:27.51 | 0 | 24575 2 | 5:27.51 | 4:57.11 | 24576 | 46861 3 | 10:24.62 | 4:20.03 | 46862 | 66364 4 | 14:44.65 | 3:45.04 | 66365 | 83243 5 | 18:29.69 | 6:57.30 | 83244 | 114548 6 | 25:27.24 | 6:26.27 | 114549 | 143525 7 | 31:53.51 | 3:54.42 | 143526 | 161117 8 | 35:48.18 | 4:18.43 | 161118 | 180510

Track 1

Filename F:\Flac Rips\01 - Banya.wav

Pre-gap length 0:00:02.00

Peak level 100.0 % Extraction speed 3.1 X Track quality 99.9 % Test CRC B355BBC8 Copy CRC B355BBC8 Track not present in AccurateRip database Copy OK

Track 2

Filename F:\Flac Rips\02 - Fangara.wav

Pre-gap length 0:00:02.38

Peak level 100.0 % Extraction speed 3.5 X Track quality 99.9 % Test CRC 27AA2688 Copy CRC 27AA2688 Track not present in AccurateRip database Copy OK

Track 3

Filename F:\Flac Rips\03 - Mabrouk.wav

Pre-gap length 0:00:01.74

Peak level 97.3 % Extraction speed 4.5 X Track quality 100.0 % Test CRC 15267FFF Copy CRC 15267FFF Track not present in AccurateRip database Copy OK

Track 4

Filename F:\Flac Rips\04 - Salya.wav

Pre-gap length 0:00:02.37

Peak level 100.0 % Extraction speed 4.7 X Track quality 100.0 % Test CRC 92F7E448 Copy CRC 92F7E448 Track not present in AccurateRip database Copy OK

Track 5

Filename F:\Flac Rips\05 - Masmoudi.wav

Pre-gap length 0:00:01.71

Peak level 95.6 % Extraction speed 5.4 X Track quality 100.0 % Test CRC 6ED9B500 Copy CRC 6ED9B500 Track not present in AccurateRip database Copy OK

Track 6

Filename F:\Flac Rips\06 - Bala Moussa.wav

Pre-gap length 0:00:01.00

Peak level 98.8 % Extraction speed 5.8 X Track quality 100.0 % Test CRC A7421B48 Copy CRC A7421B48 Track not present in AccurateRip database Copy OK

Track 7

Filename F:\Flac Rips\07 - Le Monde A L'envers.wav

Pre-gap length 0:00:00.61

Peak level 93.0 % Extraction speed 5.7 X Track quality 100.0 % Test CRC 2879346B Copy CRC 2879346B Track not present in AccurateRip database Copy OK

Track 8

Filename F:\Flac Rips\08 - Hommage Aux Ancetres.wav

Pre-gap length 0:00:01.70

Peak level 99.3 % Extraction speed 6.1 X Track quality 100.0 % Test CRC DB41076A Copy CRC DB41076A Track not present in AccurateRip database Copy OK

None of the tracks are present in the AccurateRip database

No errors occurred

End of status report

==== Log checksum 8CC5BED7908A1E858C67BEC58FEBA4A48762DD284254B4001265558B96B88307 ====
 
REM GENRE "World Music"REM DATE 2011REM DISCID 61096608REM COMMENT "ExactAudioCopy v1.0b2"PERFORMER "Majid Bekkas"TITLE "Mabrouk "FILE "01 - Banya.wav" WAVE TRACK 01 AUDIO TITLE "Banya" PERFORMER "Majid Bekkas" INDEX 01 00:00:00 TRACK 02 AUDIO TITLE "Fangara" PERFORMER "Majid Bekkas" INDEX 00 05:25:13FILE "02 - Fangara.wav" WAVE INDEX 01 00:00:00 TRACK 03 AUDIO TITLE "Mabrouk" PERFORMER "Majid Bekkas" INDEX 00 04:55:12FILE "03 - Mabrouk.wav" WAVE INDEX 01 00:00:00 TRACK 04 AUDIO TITLE "Salya" PERFORMER "Majid Bekkas" INDEX 00 04:17:41FILE "04 - Salya.wav" WAVE INDEX 01 00:00:00 TRACK 05 AUDIO TITLE "Masmoudi" PERFORMER "Majid Bekkas" INDEX 00 03:43:08FILE "05 - Masmoudi.wav" WAVE INDEX 01 00:00:00 TRACK 06 AUDIO TITLE "Bala Moussa" PERFORMER "Majid Bekkas" INDEX 00 06:56:30FILE "06 - Bala Moussa.wav" WAVE INDEX 01 00:00:00 TRACK 07 AUDIO TITLE "Le Monde A L'envers" PERFORMER "Majid Bekkas" INDEX 00 06:25:41FILE "07 - Le Monde A L'envers.wav" WAVE INDEX 01 00:00:00 TRACK 08 AUDIO TITLE "Hommage Aux Ancetres" PERFORMER "Majid Bekkas" INDEX 00 03:52:47FILE "08 - Hommage Aux Ancetres.wav" WAVE INDEX 01 00:00:00
Majid Bekkas: Guembri, oud, guitar & vocals
Ablaye Cissoko: kora & backing vocals
Khalid Kouhen: percussions & backing vocals


Трекер:  [ 29-Янв-2012 15:03 ]

  

Скачать .torrent

Размер .torrent файла 16 KB


Размер: 379 MB
Хэш (hash) релиза: ec677842e54f67e51f32241eec67e3661572f002

Еще никто не оставлял запись к записи скачать торрент Majid Bekkas - Mabrouk - 2011, FLAC . Будь первым!

!Обратная связь