Скачать через торрент музыку Grachan Moncur III Octet - Exploration - 2004, FLAC бесплатно без регистрации torrent

Если у вас наблюдаются проблемы со скриншотами, переходом по ссылками, скачиванием торрентов - проблемы в блокировщике рекламы AdBlock. #хорошегоДня!


Статистика раздачи
Размер:  358 MB   |    Зарегистрирован:  5 лет 8 месяцев   |    .torrent скачан:  21 раз   |   
Раздают:  1  
   
Загрузка...
 
Автор Сообщение

Umakiro

avatar Umakiro


Grachan Moncur III Octet - Exploration

Жанр: Avant-Garde Jazz, Trombone Jazz
Страна-производитель диска: USA
Год издания диска: 2004
Издатель (лейбл): Capri Records
Номер по каталогу: 74068-2
Страна: New York, NY
Аудиокодек: FLAC (*.flac)
Тип рипа: tracks+.cue
Битрейт аудио: lossless
Продолжительность: 00:54:04
Источник (релизер): mishka1981
Наличие сканов в содержимом раздачи: да
01. exploration [08:11]
02. monk in wonderland [05:26]
03. love and hate [08:48]
04. new africa [09:54]
05. when? [07:34]
06. frankenstein [06:59]
07. excursion [02:55]
08. sonny's back! [04:13]
 
Exact Audio Copy V1.0 beta 1 from 15. November 2010

EAC extraction logfile from 27. December 2011, 2:21

Grachan Moncur III / Exploration

Used drive : Optiarc DVD RW AD-7710H Adapter: 1 ID: 0

Read mode : SecureUtilize accurate stream : YesDefeat audio cache : YesMake use of C2 pointers : No

Read offset correction : 48Overread into Lead-In and Lead-Out : NoFill up missing offset samples with silence : YesDelete leading and trailing silent blocks : NoNull samples used in CRC calculations : YesUsed interface : Native Win32 interface for Win NT & 2000Gap handling : Appended to previous track

Used output format : User Defined EncoderSelected bitrate : 896 kBit/sQuality : HighAdd ID3 tag : NoCommand line compressor : C:\Program Files\Exact Audio Copy\FLAC\FLAC.EXEAdditional command line options : -8 -V -T "ARTIST=%a" -T "TITLE=%t" -T "ALBUM=%g" -T "DATE=%y" -T "TRACKNUMBER=%n" -T "GENRE=%m" -T "COMMENT=%e" %j--picture="%i"%j %s -o %d

TOC of the extracted CD

Track | Start | Length | Start sector | End sector --------------------------------------------------------- 1 | 0:00.00 | 8:11.30 | 0 | 36854 2 | 8:11.30 | 5:26.67 | 36855 | 61371 3 | 13:38.22 | 8:48.46 | 61372 | 101017 4 | 22:26.68 | 9:54.30 | 101018 | 145597 5 | 32:21.23 | 7:34.46 | 145598 | 179693 6 | 39:55.69 | 6:59.16 | 179694 | 211134 7 | 46:55.10 | 2:55.37 | 211135 | 224296 8 | 49:50.47 | 4:13.43 | 224297 | 243314

Track 1

Filename C:\MY RIPS\01 - exploration.wav

Pre-gap length 0:00:02.00

Peak level 100.0 % Extraction speed 3.4 X Track quality 100.0 % Test CRC FCBBE00B Copy CRC FCBBE00B Accurately ripped (confidence 2) [B2B1CFE3] Copy OK

Track 2

Filename C:\MY RIPS\02 - monk in wonderland.wav

Pre-gap length 0:00:03.00

Peak level 100.0 % Extraction speed 3.7 X Track quality 100.0 % Test CRC 94BA507F Copy CRC 94BA507F Accurately ripped (confidence 2) [2678DB39] Copy OK

Track 3

Filename C:\MY RIPS\03 - love and hate.wav

Pre-gap length 0:00:03.00

Peak level 99.9 % Extraction speed 4.3 X Track quality 100.0 % Test CRC F5E57484 Copy CRC F5E57484 Accurately ripped (confidence 2) [F94F11D7] Copy OK

Track 4

Filename C:\MY RIPS\04 - new africa.wav

Pre-gap length 0:00:03.00

Peak level 100.0 % Extraction speed 4.5 X Track quality 99.9 % Test CRC C7E28354 Copy CRC C7E28354 Accurately ripped (confidence 2) [DAC25BDE] Copy OK

Track 5

Filename C:\MY RIPS\05 - when.wav

Pre-gap length 0:00:02.00

Peak level 100.0 % Extraction speed 5.2 X Track quality 100.0 % Test CRC 7CDB5FDB Copy CRC 7CDB5FDB Accurately ripped (confidence 2) [26F84EEA] Copy OK

Track 6

Filename C:\MY RIPS\06 - frankenstein.wav

Pre-gap length 0:00:02.37

Peak level 100.0 % Extraction speed 5.5 X Track quality 100.0 % Test CRC CEA873D5 Copy CRC CEA873D5 Accurately ripped (confidence 2) [832FA2EC] Copy OK

Track 7

Filename C:\MY RIPS\07 - excursion.wav

Pre-gap length 0:00:01.37

Peak level 100.0 % Extraction speed 5.1 X Track quality 100.0 % Test CRC 89591CEA Copy CRC 89591CEA Accurately ripped (confidence 2) [39D19E3F] Copy OK

Track 8

Filename C:\MY RIPS\08 - sonny's back!.wav

Pre-gap length 0:00:02.00

Peak level 100.0 % Extraction speed 5.5 X Track quality 100.0 % Test CRC 1347B475 Copy CRC 1347B475 Accurately ripped (confidence 2) [596D4F70] Copy OK

All tracks accurately ripped

No errors occurred

End of status report

==== Log checksum 6E887E940AF2A66FB3B06672056301FE6FE89BC3F022E2ACEA7B7A5A73A9A045 ====
 
REM GENRE JazzREM DATE 2004REM DISCID 7A0CAC08REM COMMENT "ExactAudioCopy v1.0b1"PERFORMER "Grachan Moncur III"TITLE "Exploration"FILE "01 - exploration.wav" WAVE TRACK 01 AUDIO TITLE "exploration" PERFORMER "Grachan Moncur III" INDEX 01 00:00:00 TRACK 02 AUDIO TITLE "monk in wonderland" PERFORMER "Grachan Moncur III" INDEX 00 08:08:30FILE "02 - monk in wonderland.wav" WAVE INDEX 01 00:00:00 TRACK 03 AUDIO TITLE "love and hate" PERFORMER "Grachan Moncur III" INDEX 00 05:23:67FILE "03 - love and hate.wav" WAVE INDEX 01 00:00:00 TRACK 04 AUDIO TITLE "new africa" PERFORMER "Grachan Moncur III" INDEX 00 08:45:46FILE "04 - new africa.wav" WAVE INDEX 01 00:00:00 TRACK 05 AUDIO TITLE "when?" PERFORMER "Grachan Moncur III" INDEX 00 09:52:30FILE "05 - when.wav" WAVE INDEX 01 00:00:00 TRACK 06 AUDIO TITLE "frankenstein" PERFORMER "Grachan Moncur III" INDEX 00 07:32:09FILE "06 - frankenstein.wav" WAVE INDEX 01 00:00:00 TRACK 07 AUDIO TITLE "excursion" PERFORMER "Grachan Moncur III" INDEX 00 06:57:54FILE "07 - excursion.wav" WAVE INDEX 01 00:00:00 TRACK 08 AUDIO TITLE "sonny's back!" PERFORMER "Grachan Moncur III" INDEX 00 02:53:37FILE "08 - sonny's back!.wav" WAVE INDEX 01 00:00:00
Grachan Moncur III (trombone)
Grachan Moncur III; Gary Bartz, Gary Betz (alto saxophone)
Ray Drummond (double bass)
Billy Harper (tenor saxophone)
Gary Smulyan (baritone saxophone)
Tim Hagans (trumpet)
John Clark (French horn)
Dave Woodley (trombone)
Andrew Cyrille (drums)


Трекер:  [ 29-Янв-2012 15:03 ]

  

Скачать .torrent

Размер .torrent файла 15 KB


Размер: 358 MB
Хэш (hash) релиза: 7002e4741c15c32a69a80be1ff08391eff929d53

Еще никто не оставлял запись к записи скачать торрент Grachan Moncur III Octet - Exploration - 2004, FLAC . Будь первым!

!Обратная связь