Скачать через торрент музыку Carlo Mezzanotte & Syntaxis - Cieli Diversi - 1997, FLAC бесплатно без регистрации torrent

Если у вас наблюдаются проблемы со скриншотами, переходом по ссылками, скачиванием торрентов - проблемы в блокировщике рекламы AdBlock. #хорошегоДня!


Статистика раздачи
Размер:  289 MB   |    Зарегистрирован:  5 лет 8 месяцев   |    .torrent скачан:  16 раз   |   
Раздают:  1  
   
Загрузка...
 
Автор Сообщение

Umakiro

avatar Umakiro


Carlo Mezzanotte & Syntaxis - Cieli Diversi
Жанр: Jazz-Rock
Год издания диска: 1997
Издатель (лейбл): Spring City
Номер по каталогу: CD 0206
Страна: Italy, Rome
Аудиокодек: FLAC (*.flac)
Тип рипа: tracks+.cue
Битрейт аудио: lossless
Продолжительность: 00:52:27
Источник (релизер): cifelius
Наличие сканов в содержимом раздачи: да
01. Big Land [06:23]
02. One More Step [05:53]
03. Papa Z [06:22]
04. Canto De Los Recuerdos [07:26]
05. FFF [09:45]
06. Aria Bruciata [05:17]
07. Cieli Diversi [02:22]
08. Chickmate [05:40]
09. Cercatore [03:14]
 
Exact Audio Copy V1.0 beta 2 from 29. April 2011

EAC extraction logfile from 26. July 2011, 23:10

Carlo Mezzanotte & Syntaxis / Cieli Diversi

Used drive : HL-DT-STDVDRAM GH24NS50 Adapter: 1 ID: 1

Read mode : SecureUtilize accurate stream : YesDefeat audio cache : YesMake use of C2 pointers : No

Read offset correction : 667Overread into Lead-In and Lead-Out : NoFill up missing offset samples with silence : YesDelete leading and trailing silent blocks : NoNull samples used in CRC calculations : YesUsed interface : Native Win32 interface for Win NT & 2000Gap handling : Appended to previous track

Used output format : User Defined EncoderSelected bitrate : 768 kBit/sQuality : HighAdd ID3 tag : NoCommand line compressor : E:\Programmi\Exact Audio Copy\Flac\flac.exeAdditional command line options : -8 -V -T "ARTIST=%artist%" -T "TITLE=%title%" -T "ALBUM=%albumtitle%" -T "DATE=%year%" -T "TRACKNUMBER=%tracknr%" -T "TOTALTRACKS=%numtracks%" -T "GENRE=%genre%" -T "ALBUMARTIST=%albumartist%" -T "ALBUM ARTIST=%albumartist%

TOC of the extracted CD

Track | Start | Length | Start sector | End sector --------------------------------------------------------- 1 | 0:00.30 | 6:23.36 | 30 | 28790 2 | 6:23.66 | 5:53.73 | 28791 | 55338 3 | 12:17.64 | 6:22.08 | 55339 | 83996 4 | 18:39.72 | 7:26.69 | 83997 | 117515 5 | 26:06.66 | 9:45.59 | 117516 | 161449 6 | 35:52.50 | 5:17.43 | 161450 | 185267 7 | 41:10.18 | 2:22.23 | 185268 | 195940 8 | 43:32.41 | 5:40.53 | 195941 | 221493 9 | 49:13.19 | 3:14.23 | 221494 | 236066

Track 1

Filename C:\Documents and Settings\user\Desktop\Carlo Mezzanotte & Syntaxis - Cieli Diversi (1997) [FLAC] {Spring City}\01 - Big Land.wav

Pre-gap length 0:00:02.30

Peak level 92.0 % Extraction speed 1.1 X Track quality 99.9 % Test CRC 74796512 Copy CRC 74796512 Track not present in AccurateRip database Copy OK

Track 2

Filename C:\Documents and Settings\user\Desktop\Carlo Mezzanotte & Syntaxis - Cieli Diversi (1997) [FLAC] {Spring City}\02 - One More Step.wav

Peak level 86.9 % Extraction speed 1.4 X Track quality 100.0 % Test CRC 67B0AF40 Copy CRC 67B0AF40 Track not present in AccurateRip database Copy OK

Track 3

Filename C:\Documents and Settings\user\Desktop\Carlo Mezzanotte & Syntaxis - Cieli Diversi (1997) [FLAC] {Spring City}\03 - Papa Z.wav

Peak level 87.7 % Extraction speed 1.4 X Track quality 99.9 % Test CRC EDC41EF2 Copy CRC EDC41EF2 Track not present in AccurateRip database Copy OK

Track 4

Filename C:\Documents and Settings\user\Desktop\Carlo Mezzanotte & Syntaxis - Cieli Diversi (1997) [FLAC] {Spring City}\04 - Canto De Los Recuerdos.wav

Peak level 82.2 % Extraction speed 1.7 X Track quality 100.0 % Test CRC 309F43A9 Copy CRC 309F43A9 Track not present in AccurateRip database Copy OK

Track 5

Filename C:\Documents and Settings\user\Desktop\Carlo Mezzanotte & Syntaxis - Cieli Diversi (1997) [FLAC] {Spring City}\05 - FFF.wav

Peak level 100.0 % Extraction speed 2.0 X Track quality 100.0 % Test CRC F3EFFBD3 Copy CRC F3EFFBD3 Track not present in AccurateRip database Copy OK

Track 6

Filename C:\Documents and Settings\user\Desktop\Carlo Mezzanotte & Syntaxis - Cieli Diversi (1997) [FLAC] {Spring City}\06 - Aria Bruciata.wav

Peak level 75.1 % Extraction speed 2.0 X Track quality 100.0 % Test CRC B435EF76 Copy CRC B435EF76 Track not present in AccurateRip database Copy OK

Track 7

Filename C:\Documents and Settings\user\Desktop\Carlo Mezzanotte & Syntaxis - Cieli Diversi (1997) [FLAC] {Spring City}\07 - Cieli Diversi.wav

Peak level 76.7 % Extraction speed 1.8 X Track quality 100.0 % Test CRC 5C30DD67 Copy CRC 5C30DD67 Track not present in AccurateRip database Copy OK

Track 8

Filename C:\Documents and Settings\user\Desktop\Carlo Mezzanotte & Syntaxis - Cieli Diversi (1997) [FLAC] {Spring City}\08 - Chickmate.wav

Peak level 71.2 % Extraction speed 2.2 X Track quality 100.0 % Test CRC 14FF5BFC Copy CRC 14FF5BFC Track not present in AccurateRip database Copy OK

Track 9

Filename C:\Documents and Settings\user\Desktop\Carlo Mezzanotte & Syntaxis - Cieli Diversi (1997) [FLAC] {Spring City}\09 - Cercatore.wav

Peak level 66.1 % Extraction speed 2.1 X Track quality 100.0 % Test CRC CA663CB9 Copy CRC CA663CB9 Track not present in AccurateRip database Copy OK

None of the tracks are present in the AccurateRip database

No errors occurred

End of status report

==== Log checksum 87918A2816600ACF36FDDC6ECD34ABFAB3B9DBAE3AFEFF3B7C67793B88AEDF47 ====
 
REM GENRE FusionREM DATE 1997REM DISCID 7B0C4B09REM COMMENT "ExactAudioCopy v1.0b2"PERFORMER "Carlo Mezzanotte & Syntaxis"TITLE "Cieli Diversi"FILE "01 - Big Land.wav" WAVE TRACK 01 AUDIO TITLE "Big Land" PERFORMER "Carlo Mezzanotte & Syntaxis" FLAGS DCP PREGAP 00:00:30 INDEX 01 00:00:00FILE "02 - One More Step.wav" WAVE TRACK 02 AUDIO TITLE "One More Step" PERFORMER "Carlo Mezzanotte & Syntaxis" FLAGS DCP INDEX 01 00:00:00FILE "03 - Papa Z.wav" WAVE TRACK 03 AUDIO TITLE "Papa Z" PERFORMER "Carlo Mezzanotte & Syntaxis" FLAGS DCP INDEX 01 00:00:00FILE "04 - Canto De Los Recuerdos.wav" WAVE TRACK 04 AUDIO TITLE "Canto De Los Recuerdos" PERFORMER "Carlo Mezzanotte & Syntaxis" FLAGS DCP INDEX 01 00:00:00FILE "05 - FFF.wav" WAVE TRACK 05 AUDIO TITLE "FFF" PERFORMER "Carlo Mezzanotte & Syntaxis" FLAGS DCP INDEX 01 00:00:00FILE "06 - Aria Bruciata.wav" WAVE TRACK 06 AUDIO TITLE "Aria Bruciata" PERFORMER "Carlo Mezzanotte & Syntaxis" FLAGS DCP INDEX 01 00:00:00FILE "07 - Cieli Diversi.wav" WAVE TRACK 07 AUDIO TITLE "Cieli Diversi" PERFORMER "Carlo Mezzanotte & Syntaxis" FLAGS DCP INDEX 01 00:00:00FILE "08 - Chickmate.wav" WAVE TRACK 08 AUDIO TITLE "Chickmate" PERFORMER "Carlo Mezzanotte & Syntaxis" FLAGS DCP INDEX 01 00:00:00FILE "09 - Cercatore.wav" WAVE TRACK 09 AUDIO TITLE "Cercatore" PERFORMER "Carlo Mezzanotte & Syntaxis" FLAGS DCP INDEX 01 00:00:00
Carlo Mezzanotte: keyboards, piano, composition
Massimiliano Rosati: guitars
Valerio Serangeli: bass
Stefano Pacioni: drums

Liliana Gimenez: vocals
Claudio Corvini: trumpet
Alberto Di Giacomo: percussions


Трекер:  [ 29-Янв-2012 15:02 ]

  

Скачать .torrent

Размер .torrent файла 12 KB


Размер: 289 MB
Хэш (hash) релиза: a8b42a50ba4905bafb6a5283174baf5152ca892f

Еще никто не оставлял запись к записи скачать торрент Carlo Mezzanotte & Syntaxis - Cieli Diversi - 1997, FLAC . Будь первым!

!Обратная связь