Скачать через торрент музыку Javon Jackson - Pleasant Valley - 1999, FLAC бесплатно без регистрации torrent

Если у вас наблюдаются проблемы со скриншотами, переходом по ссылками, скачиванием торрентов - проблемы в блокировщике рекламы AdBlock. #хорошегоДня!


Статистика раздачи
Размер:  356 MB   |    Зарегистрирован:  5 лет 8 месяцев   |    .torrent скачан:  22 раза   |   
Раздают:  1  
   
Загрузка...
 
Автор Сообщение

Umakiro

avatar Umakiro


Javon Jackson - Pleasant Valley

Жанр: Hard Bop, Saxophone Jazz
Страна-производитель диска: USA
Год издания диска: 1999
Издатель (лейбл): Blue Note
Номер по каталогу: 7243 4 99697 2 8
Страна: US Carthage, MI
Аудиокодек: FLAC (*.flac)
Тип рипа: tracks+.cue
Битрейт аудио: lossless
Продолжительность: 00:55:13
Источник (релизер): сеть
Наличие сканов в содержимом раздачи: да
01. Sun Swept Sunday [03:23]
02. Pleasant Valley [07:09]
03. Hippodelphia [06:59]
04. Don't You Worry 'Bout a Thing [08:30]
05. Jim Jam [06:29]
06. In the Pocket [06:08]
07. Brother 'G' [05:24]
08. Love and Happiness [04:37]
09. For One Who Knows [06:34]
 
Exact Audio Copy V0.99 prebeta 5 from 4. May 2009

EAC extraction logfile from 30. December 2009, 12:14

Javon Jackson / Pleasant Valley

Used drive : PHILIPS SPD3400CC Adapter: 3 ID: 2

Read mode : SecureUtilize accurate stream : YesDefeat audio cache : YesMake use of C2 pointers : No

Read offset correction : 6Overread into Lead-In and Lead-Out : NoFill up missing offset samples with silence : YesDelete leading and trailing silent blocks : NoNull samples used in CRC calculations : YesUsed interface : Installed external ASPI interfaceGap handling : Appended to previous track

Used output format : User Defined EncoderSelected bitrate : 768 kBit/sQuality : HighAdd ID3 tag : NoCommand line compressor : C:\Program Files\Exact Audio Copy pb5\Exact Audio Copy\Flac\flac.exeAdditional command line options : -6 -V -T "ARTIST=%a" -T "TITLE=%t" -T "ALBUM=%g" -T "DATE=%y" -T "TRACKNUMBER=%n" -T "GENRE=%m" -T "COMMENT=%e" %s -o %d

TOC of the extracted CD

Track | Start | Length | Start sector | End sector --------------------------------------------------------- 1 | 0:00.00 | 3:23.65 | 0 | 15289 2 | 3:23.65 | 7:09.60 | 15290 | 47524 3 | 10:33.50 | 6:59.72 | 47525 | 79021 4 | 17:33.47 | 8:30.60 | 79022 | 117331 5 | 26:04.32 | 6:29.68 | 117332 | 146574 6 | 32:34.25 | 6:08.47 | 146575 | 174221 7 | 38:42.72 | 5:24.60 | 174222 | 198581 8 | 44:07.57 | 4:37.25 | 198582 | 219381 9 | 48:45.07 | 6:34.28 | 219382 | 248959

Track 1

Filename C:\Rips\01 - Sun Swept Sunday.wav

Pre-gap length 0:00:02.00

Peak level 99.5 % Track quality 99.9 % Test CRC 79A77E42 Copy CRC 79A77E42 Cannot be verified as accurate (confidence 1) [80023877], AccurateRip returned [49161A95] Copy OK

Track 2

Filename C:\Rips\02 - Pleasant Valley.wav

Pre-gap length 0:00:00.37

Peak level 99.9 % Track quality 100.0 % Test CRC 0818B96A Copy CRC 0818B96A Cannot be verified as accurate (confidence 1) [B9B42A55], AccurateRip returned [F902BF9F] Copy OK

Track 3

Filename C:\Rips\03 - Hippodelphia.wav

Pre-gap length 0:00:02.17

Peak level 99.9 % Track quality 100.0 % Test CRC 71D3A367 Copy CRC 71D3A367 Cannot be verified as accurate (confidence 1) [AE851CF5], AccurateRip returned [B1905F0B] Copy OK

Track 4

Filename C:\Rips\04 - Don't You Worry 'Bout a Thing.wav

Pre-gap length 0:00:00.90

Peak level 99.9 % Track quality 100.0 % Test CRC 3628B8FB Copy CRC 3628B8FB Cannot be verified as accurate (confidence 1) [97F63B21], AccurateRip returned [C0CDBBE9] Copy OK

Track 5

Filename C:\Rips\05 - Jim Jam.wav

Pre-gap length 0:00:00.94

Peak level 99.9 % Track quality 100.0 % Test CRC 96729A63 Copy CRC 96729A63 Cannot be verified as accurate (confidence 1) [924DF4C1], AccurateRip returned [E1EAEFFF] Copy OK

Track 6

Filename C:\Rips\06 - In the Pocket.wav

Pre-gap length 0:00:00.72

Peak level 99.9 % Track quality 100.0 % Test CRC 4D1BF2DE Copy CRC 4D1BF2DE Cannot be verified as accurate (confidence 1) [0DE65DBB], AccurateRip returned [7FE9D6CB] Copy OK

Track 7

Filename C:\Rips\07 - Brother 'G'.wav

Pre-gap length 0:00:02.26

Peak level 99.9 % Track quality 100.0 % Test CRC 6DB379CB Copy CRC 6DB379CB Cannot be verified as accurate (confidence 1) [34CD71CC], AccurateRip returned [5AA2C8DE] Copy OK

Track 8

Filename C:\Rips\08 - Love and Happiness.wav

Pre-gap length 0:00:00.73

Peak level 99.9 % Track quality 100.0 % Test CRC ACAF9C82 Copy CRC ACAF9C82 Cannot be verified as accurate (confidence 1) [1F887D22], AccurateRip returned [43E84747] Copy OK

Track 9

Filename C:\Rips\09 - For One Who Knows.wav

Pre-gap length 0:00:01.40

Peak level 99.8 % Track quality 100.0 % Test CRC 43191839 Copy CRC 43191839 Cannot be verified as accurate (confidence 1) [4FD07FAF], AccurateRip returned [A953D121] Copy OK

No tracks could be verified as accurateYou may have a different pressing from the one(s) in the database

No errors occurred

End of status report
 
REM GENRE JazzREM DATE 1999REM DISCID 7D0CF709REM COMMENT "ExactAudioCopy v0.99pb5"CATALOG 0724349969728PERFORMER "Javon Jackson"TITLE "Pleasant Valley"FILE "01 - Sun Swept Sunday.wav" WAVE TRACK 01 AUDIO TITLE "Sun Swept Sunday" PERFORMER "Javon Jackson" ISRC USBN29900041 INDEX 01 00:00:00 TRACK 02 AUDIO TITLE "Pleasant Valley" PERFORMER "Javon Jackson" ISRC USBN29900041 INDEX 00 03:23:37FILE "02 - Pleasant Valley.wav" WAVE INDEX 01 00:00:00 TRACK 03 AUDIO TITLE "Hippodelphia" PERFORMER "Javon Jackson" ISRC USBN29900043 INDEX 00 07:07:47FILE "03 - Hippodelphia.wav" WAVE INDEX 01 00:00:00 TRACK 04 AUDIO TITLE "Don't You Worry 'Bout a Thing" PERFORMER "Javon Jackson" ISRC USBN29900044 INDEX 00 06:59:04FILE "04 - Don't You Worry 'Bout a Thing.wav" WAVE INDEX 01 00:00:00 TRACK 05 AUDIO TITLE "Jim Jam" PERFORMER "Javon Jackson" ISRC USBN29900045 INDEX 00 08:29:64FILE "05 - Jim Jam.wav" WAVE INDEX 01 00:00:00 TRACK 06 AUDIO TITLE "In the Pocket" PERFORMER "Javon Jackson" ISRC USBN29900046 INDEX 00 06:29:14FILE "06 - In the Pocket.wav" WAVE INDEX 01 00:00:00 TRACK 07 AUDIO TITLE "Brother 'G'" PERFORMER "Javon Jackson" ISRC USBN29900047 INDEX 00 06:06:27FILE "07 - Brother 'G'.wav" WAVE INDEX 01 00:00:00 TRACK 08 AUDIO TITLE "Love and Happiness" PERFORMER "Javon Jackson" ISRC USBN29900048 INDEX 00 05:24:05FILE "08 - Love and Happiness.wav" WAVE INDEX 01 00:00:00 TRACK 09 AUDIO TITLE "For One Who Knows" PERFORMER "Javon Jackson" ISRC USBN29900049 INDEX 00 04:35:70FILE "09 - For One Who Knows.wav" WAVE INDEX 01 00:00:00
Javon Jackson (tenor saxophone)
Dave Stryker (guitar)
Larry Goldings (organ)
Billy Drummond (drums)


Трекер:  [ 29-Янв-2012 15:02 ]

  

Скачать .torrent

Размер .torrent файла 15 KB


Размер: 356 MB
Хэш (hash) релиза: 85b1faef01983192cd3d726116dc65b76d6973f6

Еще никто не оставлял запись к записи скачать торрент Javon Jackson - Pleasant Valley - 1999, FLAC . Будь первым!

!Обратная связь