Скачать через торрент музыку Horace Tapscott - Dissent or Descent - 1998, APE бесплатно без регистрации torrent

Если у вас наблюдаются проблемы со скриншотами, переходом по ссылками, скачиванием торрентов - проблемы в блокировщике рекламы AdBlock. #хорошегоДня!


Статистика раздачи
Размер:  324 MB   |    Зарегистрирован:  5 лет 8 месяцев   |    .torrent скачан:  25 раз   |   
Раздают:  1  
   
Загрузка...
 
Автор Сообщение

Umakiro

avatar Umakiro


Horace Tapscott - Dissent or Descent

Жанр: Post-Bop
Год издания диска: 1998
Издатель (лейбл): Nimbus West
Номер по каталогу: NS 509 C
Страна: USA Houston, TX
Аудиокодек: APE (*.ape)
Тип рипа: image+.cue
Битрейт аудио: lossless
Продолжительность: 01:07:14
Источник (релизер): сеть
Наличие сканов в содержимом раздачи: да
01. As a Child [07:02]
02. Sandy and Niles [07:30]
03. To the Great House [11:55]
04. Spellbound [14:13]
05. Ballad for Samuel [07:50]
06. Ruby my Dear [10:27]
07. Chico's Back in Town [08:11]
 
Exact Audio Copy V1.0 beta 2 from 29. April 2011

EAC extraction logfile from 10. December 2011, 14:04

Horace Tapscott / Dissent or Descent

Used drive : ASUS DRW-22B2L Adapter: 0 ID: 1

Read mode : SecureUtilize accurate stream : YesDefeat audio cache : YesMake use of C2 pointers : No

Read offset correction : 6Overread into Lead-In and Lead-Out : NoFill up missing offset samples with silence : YesDelete leading and trailing silent blocks : NoNull samples used in CRC calculations : YesUsed interface : Native Win32 interface for Win NT & 2000

Used output format : Internal WAV RoutinesSample format : 44.100 Hz; 16 Bit; Stereo

TOC of the extracted CD

Track | Start | Length | Start sector | End sector --------------------------------------------------------- 1 | 0:00.00 | 7:06.22 | 0 | 31971 2 | 7:06.22 | 7:30.22 | 31972 | 65743 3 | 14:36.44 | 11:54.64 | 65744 | 119357 4 | 26:31.33 | 14:13.19 | 119358 | 183351 5 | 40:44.52 | 7:49.25 | 183352 | 218551 6 | 48:34.02 | 10:27.03 | 218552 | 265579 7 | 59:01.05 | 8:07.67 | 265580 | 302171

Range status and errors

Selected range

Filename D:\Donkey Files\Horace Tapscott - Dissent or Descent (1984, Nimbus) [eac-ape-scans] byDrBull\Horace Tapscott - Dissent or Descent.wav

Peak level 100.0 % Extraction speed 3.5 X Range quality 100.0 % Test CRC 26BF0282 Copy CRC 26BF0282 Copy OK

No errors occurred

AccurateRip summary

Track 1 accurately ripped (confidence 1) [274BDECD] (AR v1)Track 2 accurately ripped (confidence 1) [FE987F45] (AR v1)Track 3 accurately ripped (confidence 1) [BAB1C35D] (AR v1)Track 4 accurately ripped (confidence 1) [226340FF] (AR v1)Track 5 accurately ripped (confidence 1) [82E14EB1] (AR v1)Track 6 accurately ripped (confidence 1) [2172B9AD] (AR v1)Track 7 accurately ripped (confidence 1) [3A1070DF] (AR v1)

All tracks accurately ripped

End of status report

==== Log checksum 070FEC92F07EA40B9B945F4AA664724541D46B553482774B265F43109421B90A ====
 
REM DISCID 6A0FBC07REM COMMENT "ExactAudioCopy v1.0b2"PERFORMER "Horace Tapscott"TITLE "Dissent or Descent"FILE "Horace Tapscott - Dissent or Descent.wav" WAVE TRACK 01 AUDIO TITLE "As a Child" PERFORMER "Horace Tapscott" INDEX 01 00:00:00 TRACK 02 AUDIO TITLE "Sandy and Niles" PERFORMER "Horace Tapscott" INDEX 00 07:02:22 INDEX 01 07:06:22 TRACK 03 AUDIO TITLE "To the Great House" PERFORMER "Horace Tapscott" INDEX 00 14:32:44 INDEX 01 14:36:44 TRACK 04 AUDIO TITLE "Spellbound" PERFORMER "Horace Tapscott" INDEX 00 26:27:33 INDEX 01 26:31:33 TRACK 05 AUDIO TITLE "Ballad for Samuel" PERFORMER "Horace Tapscott" INDEX 00 40:40:52 INDEX 01 40:44:52 TRACK 06 AUDIO TITLE "Ruby my Dear" PERFORMER "Horace Tapscott" INDEX 00 48:30:02 INDEX 01 48:34:02 TRACK 07 AUDIO TITLE "Chico's Back in Town" PERFORMER "Horace Tapscott" INDEX 00 58:57:05 INDEX 01 59:01:05
Horace Tapscott - piano
Fred Hopkins - bass
Ben Riley - drums


Трекер:  [ 29-Янв-2012 15:02 ]

  

Скачать .torrent

Размер .torrent файла 13 KB


Размер: 324 MB
Хэш (hash) релиза: 24a58705a5899acd4e80dbca2fae2c8c5c6bd126

Еще никто не оставлял запись к записи скачать торрент Horace Tapscott - Dissent or Descent - 1998, APE . Будь первым!

!Обратная связь