Скачать через торрент музыку The Earl MacDonald 6 - Echoes in the Night - 2005, APE бесплатно без регистрации torrent

Если у вас наблюдаются проблемы со скриншотами, переходом по ссылками, скачиванием торрентов - проблемы в блокировщике рекламы AdBlock. #хорошегоДня!


Статистика раздачи
Размер:  425 MB   |    Зарегистрирован:  5 лет 8 месяцев   |    .torrent скачан:  24 раза   |   
Раздают:  1  
   
Загрузка...
 
Автор Сообщение

Umakiro

avatar Umakiro


The Earl MacDonald 6 - Echoes in the Night

Жанр: Contemporary, Post-bop
Год издания диска: 2005
Издатель (лейбл): Sea Breeze
Номер по каталогу: SB-3072
Страна: Canada Winnipeg, Manitoba
Аудиокодек: APE (*.ape)
Тип рипа: image+.cue
Битрейт аудио: lossless
Продолжительность: 01:06:01
Источник (релизер): сеть
Наличие сканов в содержимом раздачи: да
01. The Owe Joe [08:05]
02. East of the Sun [08:29]
03. Echoes in the Night [09:50]
04. Jana's Song [07:31]
05. Bad Dream [08:26]
06. Firm Grip [07:01]
07. Lou Ann [07:06]
08. A Change Will Come [07:27]
09. The Bidwell Cronies [02:06]
 
Exact Audio Copy V1.0 beta 2 from 29. April 2011

EAC extraction logfile from 7. November 2011, 12:47

Earl MacDonald Six / Echoes In The Night

Used drive : ASUS DRW-22B2L Adapter: 0 ID: 1

Read mode : SecureUtilize accurate stream : YesDefeat audio cache : YesMake use of C2 pointers : No

Read offset correction : 6Overread into Lead-In and Lead-Out : NoFill up missing offset samples with silence : YesDelete leading and trailing silent blocks : NoNull samples used in CRC calculations : YesUsed interface : Native Win32 interface for Win NT & 2000

Used output format : Internal WAV RoutinesSample format : 44.100 Hz; 16 Bit; Stereo

TOC of the extracted CD

Track | Start | Length | Start sector | End sector --------------------------------------------------------- 1 | 0:00.00 | 8:05.48 | 0 | 36422 2 | 8:05.48 | 8:28.74 | 36423 | 74596 3 | 16:34.47 | 9:50.06 | 74597 | 118852 4 | 26:24.53 | 7:30.28 | 118853 | 152630 5 | 33:55.06 | 8:26.01 | 152631 | 190581 6 | 42:21.07 | 7:01.27 | 190582 | 222183 7 | 49:22.34 | 7:05.53 | 222184 | 254111 8 | 56:28.12 | 7:27.15 | 254112 | 287651 9 | 63:55.27 | 2:06.40 | 287652 | 297141

Range status and errors

Selected range

Filename D:\Donkey Files\Earl McDonald 6 - Echoes in the Night (2005, Sea Breeze) [eac-ape-scans] byDrBull\Earl MacDonald Six - Echoes In The Night.wav

Peak level 100.0 % Extraction speed 6.5 X Range quality 100.0 % Test CRC 45EE4B3C Copy CRC 45EE4B3C Copy OK

No errors occurred

AccurateRip summary

Track 1 not present in databaseTrack 2 not present in databaseTrack 3 not present in databaseTrack 4 not present in databaseTrack 5 not present in databaseTrack 6 not present in databaseTrack 7 not present in databaseTrack 8 not present in databaseTrack 9 not present in database

None of the tracks are present in the AccurateRip database

End of status report

==== Log checksum FE99D67A686C102D223DC6CD5D51078C70B058C62E0D60E5157EE4312814F0F6 ====
 
REM GENRE JazzREM DATE 2005REM DISCID 940F7909REM COMMENT "ExactAudioCopy v1.0b2"PERFORMER "Earl MacDonald Six"TITLE "Echoes In The Night"FILE "Earl MacDonald Six - Echoes In The Night.wav" WAVE TRACK 01 AUDIO TITLE "The Owe Joe" PERFORMER "Earl MacDonald Six" INDEX 01 00:00:00 TRACK 02 AUDIO TITLE "East of the Sun" PERFORMER "Earl MacDonald Six" INDEX 01 08:05:48 TRACK 03 AUDIO TITLE "Echoes in the Night" PERFORMER "Earl MacDonald Six" INDEX 01 16:34:47 TRACK 04 AUDIO TITLE "Jana's Song" PERFORMER "Earl MacDonald Six" INDEX 01 26:24:53 TRACK 05 AUDIO TITLE "Bad Dream" PERFORMER "Earl MacDonald Six" INDEX 01 33:55:06 TRACK 06 AUDIO TITLE "Firm Grip" PERFORMER "Earl MacDonald Six" INDEX 01 42:21:07 TRACK 07 AUDIO TITLE "Lou Ann" PERFORMER "Earl MacDonald Six" INDEX 01 49:22:34 TRACK 08 AUDIO TITLE "A Change Will Come" PERFORMER "Earl MacDonald Six" INDEX 01 56:28:12 TRACK 09 AUDIO TITLE "The Bidwell Cronies" PERFORMER "Earl MacDonald Six" INDEX 01 63:55:27
Earl MacDonald (piano)
Dick Oatts (alto saxophone)
Joe Magnarelli (trumpet)
Steve Davis (trombone)
Dave Santoro (double bass)
Tom Melito (drums)


Трекер:  [ 29-Янв-2012 15:01 ]

  

Скачать .torrent

Размер .torrent файла 17 KB


Размер: 425 MB
Хэш (hash) релиза: 85679d3d271cd5b5f4add44a98033ee82c325f1b

Еще никто не оставлял запись к записи скачать торрент The Earl MacDonald 6 - Echoes in the Night - 2005, APE . Будь первым!

!Обратная связь