Скачать через торрент музыку Hugh Lawson - Prime Time - бесплатно без регистрации torrent

Если у вас наблюдаются проблемы со скриншотами, переходом по ссылками, скачиванием торрентов - проблемы в блокировщике рекламы AdBlock. #хорошегоДня!


Статистика раздачи
Размер:  393 MB   |    Зарегистрирован:  5 лет 8 месяцев   |    .torrent скачан:  18 раз   |   
Раздают:  1  
   
Загрузка...
 
Автор Сообщение

Umakiro

avatar Umakiro


Hugh Lawson - Prime Time

Жанр: Hard Bop
Страна-производитель диска: Denmark
Год издания диска: 1998
Издатель (лейбл): Storyville
Номер по каталогу: STCD 8267
Страна: US Detroit, MI
Аудиокодек: FLAC (*.flac)
Тип рипа: tracks+.cue
Битрейт аудио: lossless
Продолжительность: 01:04:44
Источник (релизер): mishka1981
Наличие сканов в содержимом раздачи: да
01. The Highest Mountain (tk 5, master) [04:49]
02. Blue Bones (tk 1, master) [05:13]
03. The Need To Smile (tk 3, master) [04:51]
04. The Duke Ellington Sound Of Love (tk 1, master) [05:12]
05. Rip Off (tk 1, master) [06:40]
06. I Fall In Love Too Easily (tk 3, master) [08:43]
07. I'll Keep Loving You (tk 1, master) [02:18]
08. Make Me Rainbows (tk 3, master) [06:08]
09. Falling For You (tk 1, master) [11:17]
10. The Highest Mountain (tk 4, alt) [04:48]
11. The Need To Smile (tk 1, alt) [04:42]

Отличный пианист... Рекомендую!
 
Exact Audio Copy V1.0 beta 1 from 15. November 2010

EAC extraction logfile from 29. December 2011, 15:19

Hugh Lawson / Prime Time

Used drive : Optiarc DVD RW AD-7710H Adapter: 1 ID: 0

Read mode : SecureUtilize accurate stream : YesDefeat audio cache : YesMake use of C2 pointers : No

Read offset correction : 48Overread into Lead-In and Lead-Out : NoFill up missing offset samples with silence : YesDelete leading and trailing silent blocks : NoNull samples used in CRC calculations : YesUsed interface : Native Win32 interface for Win NT & 2000Gap handling : Appended to previous track

Used output format : User Defined EncoderSelected bitrate : 896 kBit/sQuality : HighAdd ID3 tag : NoCommand line compressor : C:\Program Files\Exact Audio Copy\FLAC\FLAC.EXEAdditional command line options : -8 -V -T "ARTIST=%a" -T "TITLE=%t" -T "ALBUM=%g" -T "DATE=%y" -T "TRACKNUMBER=%n" -T "GENRE=%m" -T "COMMENT=%e" %j--picture="%i"%j %s -o %d

TOC of the extracted CD

Track | Start | Length | Start sector | End sector --------------------------------------------------------- 1 | 0:00.00 | 4:49.25 | 0 | 21699 2 | 4:49.25 | 5:13.25 | 21700 | 45199 3 | 10:02.50 | 4:51.15 | 45200 | 67039 4 | 14:53.65 | 5:12.64 | 67040 | 90503 5 | 20:06.54 | 6:40.18 | 90504 | 120521 6 | 26:46.72 | 8:43.37 | 120522 | 159783 7 | 35:30.34 | 2:18.38 | 159784 | 170171 8 | 37:48.72 | 6:08.40 | 170172 | 197811 9 | 43:57.37 | 11:17.00 | 197812 | 248586 10 | 55:14.37 | 4:48.03 | 248587 | 270189 11 | 60:02.40 | 4:42.17 | 270190 | 291356

Track 1

Filename C:\MY RIPS\01 - The Highest Mountain (tk 5, master).wav

Pre-gap length 0:00:02.00

Peak level 88.7 % Extraction speed 2.8 X Track quality 100.0 % Test CRC C0F0C74C Copy CRC C0F0C74C Accurately ripped (confidence 1) [525F43A1] Copy OK

Track 2

Filename C:\MY RIPS\02 - Blue Bones (tk 1, master).wav

Pre-gap length 0:00:02.23

Peak level 100.0 % Extraction speed 3.2 X Track quality 100.0 % Test CRC F139C0D5 Copy CRC F139C0D5 Accurately ripped (confidence 1) [387CEC2D] Copy OK

Track 3

Filename C:\MY RIPS\03 - The Need To Smile (tk 3, master).wav

Pre-gap length 0:00:01.48

Peak level 100.0 % Extraction speed 3.0 X Track quality 99.9 % Test CRC 73396A80 Copy CRC 73396A80 Accurately ripped (confidence 1) [CC60DB54] Copy OK

Track 4

Filename C:\MY RIPS\04 - The Duke Ellington Sound Of Love (tk 1, master).wav

Pre-gap length 0:00:01.33

Peak level 76.2 % Extraction speed 3.9 X Track quality 100.0 % Test CRC 5C7EC6F6 Copy CRC 5C7EC6F6 Accurately ripped (confidence 1) [09A71E37] Copy OK

Track 5

Filename C:\MY RIPS\05 - Rip Off (tk 1, master).wav

Pre-gap length 0:00:02.00

Peak level 100.0 % Extraction speed 4.3 X Track quality 100.0 % Test CRC 4000DB27 Copy CRC 4000DB27 Accurately ripped (confidence 1) [DBBBF9F4] Copy OK

Track 6

Filename C:\MY RIPS\06 - I Fall In Love Too Easily (tk 3, master).wav

Pre-gap length 0:00:02.05

Peak level 93.4 % Extraction speed 4.8 X Track quality 100.0 % Test CRC AC4AEB8E Copy CRC AC4AEB8E Accurately ripped (confidence 1) [9C21894F] Copy OK

Track 7

Filename C:\MY RIPS\07 - I'll Keep Loving You (tk 1, master).wav

Pre-gap length 0:00:02.29

Peak level 96.8 % Extraction speed 4.2 X Track quality 100.0 % Test CRC 46FB3B38 Copy CRC 46FB3B38 Accurately ripped (confidence 1) [63C49D69] Copy OK

Track 8

Filename C:\MY RIPS\08 - Make Me Rainbows (tk 3, master).wav

Pre-gap length 0:00:01.30

Peak level 92.0 % Extraction speed 5.1 X Track quality 100.0 % Test CRC C1F27032 Copy CRC C1F27032 Accurately ripped (confidence 1) [40F35C97] Copy OK

Track 9

Filename C:\MY RIPS\09 - Falling For You (tk 1, master).wav

Pre-gap length 0:00:01.50

Peak level 95.6 % Extraction speed 5.7 X Track quality 100.0 % Test CRC A7BFD463 Copy CRC A7BFD463 Accurately ripped (confidence 1) [9C9E2AFB] Copy OK

Track 10

Filename C:\MY RIPS\10 - The Highest Mountain (tk 4, alt).wav

Pre-gap length 0:00:02.25

Peak level 90.5 % Extraction speed 5.6 X Track quality 100.0 % Test CRC 11541672 Copy CRC 11541672 Accurately ripped (confidence 1) [68C0945A] Copy OK

Track 11

Filename C:\MY RIPS\11 - The Need To Smile (tk 1, alt).wav

Pre-gap length 0:00:01.05

Peak level 90.7 % Extraction speed 5.7 X Track quality 100.0 % Test CRC 28C188FF Copy CRC 28C188FF Accurately ripped (confidence 1) [3FF198C8] Copy OK

All tracks accurately ripped

No errors occurred

End of status report

==== Log checksum E071321ABAA41F5951FA4A14EEA056D6F7D6CCA7E39EC33CEAFB610A2FAF761B ====
 
REM GENRE JazzREM DISCID 890F2C0BREM COMMENT "ExactAudioCopy v1.0b1"PERFORMER "Hugh Lawson"TITLE "Prime Time"FILE "01 - The Highest Mountain (tk 5, master).wav" WAVE TRACK 01 AUDIO TITLE "The Highest Mountain (tk 5, master)" PERFORMER "Hugh Lawson" INDEX 01 00:00:00 TRACK 02 AUDIO TITLE "Blue Bones (tk 1, master)" PERFORMER "Hugh Lawson" INDEX 00 04:47:02FILE "02 - Blue Bones (tk 1, master).wav" WAVE INDEX 01 00:00:00 TRACK 03 AUDIO TITLE "The Need To Smile (tk 3, master)" PERFORMER "Hugh Lawson" INDEX 00 05:11:52FILE "03 - The Need To Smile (tk 3, master).wav" WAVE INDEX 01 00:00:00 TRACK 04 AUDIO TITLE "The Duke Ellington Sound Of Love (tk 1, master)" PERFORMER "Hugh Lawson" INDEX 00 04:49:57FILE "04 - The Duke Ellington Sound Of Love (tk 1, master).wav" WAVE INDEX 01 00:00:00 TRACK 05 AUDIO TITLE "Rip Off (tk 1, master)" PERFORMER "Hugh Lawson" INDEX 00 05:10:64FILE "05 - Rip Off (tk 1, master).wav" WAVE INDEX 01 00:00:00 TRACK 06 AUDIO TITLE "I Fall In Love Too Easily (tk 3, master)" PERFORMER "Hugh Lawson" INDEX 00 06:38:13FILE "06 - I Fall In Love Too Easily (tk 3, master).wav" WAVE INDEX 01 00:00:00 TRACK 07 AUDIO TITLE "I'll Keep Loving You (tk 1, master)" PERFORMER "Hugh Lawson" INDEX 00 08:41:08FILE "07 - I'll Keep Loving You (tk 1, master).wav" WAVE INDEX 01 00:00:00 TRACK 08 AUDIO TITLE "Make Me Rainbows (tk 3, master)" PERFORMER "Hugh Lawson" INDEX 00 02:17:08FILE "08 - Make Me Rainbows (tk 3, master).wav" WAVE INDEX 01 00:00:00 TRACK 09 AUDIO TITLE "Falling For You (tk 1, master)" PERFORMER "Hugh Lawson" INDEX 00 06:06:65FILE "09 - Falling For You (tk 1, master).wav" WAVE INDEX 01 00:00:00 TRACK 10 AUDIO TITLE "The Highest Mountain (tk 4, alt)" PERFORMER "Hugh Lawson" INDEX 00 11:14:50FILE "10 - The Highest Mountain (tk 4, alt).wav" WAVE INDEX 01 00:00:00 TRACK 11 AUDIO TITLE "The Need To Smile (tk 1, alt)" PERFORMER "Hugh Lawson" INDEX 00 04:46:73FILE "11 - The Need To Smile (tk 1, alt).wav" WAVE INDEX 01 00:00:00
Hugh Lawson (piano)
Bob Cranshaw (bass)
Ben Riley (drums)


Трекер:  [ 29-Янв-2012 15:01 ]

  

Скачать .torrent

Размер .torrent файла 17 KB


Размер: 393 MB
Хэш (hash) релиза: b95e994f660f4f945561bb67b4f83cf2f1f4d8f7

Еще никто не оставлял запись к записи скачать торрент Hugh Lawson - Prime Time - . Будь первым!

!Обратная связь