Скачать через торрент музыку Javon Jackson - Good People - 1997, FLAC бесплатно без регистрации torrent

Если у вас наблюдаются проблемы со скриншотами, переходом по ссылками, скачиванием торрентов - проблемы в блокировщике рекламы AdBlock. #хорошегоДня!


Статистика раздачи
Размер:  351 MB   |    Зарегистрирован:  5 лет 8 месяцев   |    .torrent скачан:  27 раз   |   
Раздают:  1  
   
Загрузка...
 
Автор Сообщение

Umakiro

avatar Umakiro


Javon Jackson - Good People

Жанр: Hard Bop, Saxophone Jazz
Страна-производитель диска: USA
Год издания диска: 1997
Издатель (лейбл): Blue Note
Номер по каталогу: 7243 8 56680 2 9
Страна: US Carthage, MI
Аудиокодек: FLAC (*.flac)
Тип рипа: tracks+.cue
Битрейт аудио: lossless
Продолжительность: 00:49:54
Источник (релизер): сеть
Наличие сканов в содержимом раздачи: да
01. Ed' Oxum [05:44]
02. Emergency [07:21]
03. Exotica [06:27]
04. Good People [09:37]
05. Diane [06:08]
06. Flor de Canela [09:38]
07. Naaman [04:57]
 
Exact Audio Copy V0.99 prebeta 5 from 4. May 2009

EAC extraction logfile from 30. December 2009, 13:47

Javon Jackson / Good People

Used drive : PHILIPS SPD3400CC Adapter: 3 ID: 2

Read mode : SecureUtilize accurate stream : YesDefeat audio cache : YesMake use of C2 pointers : No

Read offset correction : 6Overread into Lead-In and Lead-Out : NoFill up missing offset samples with silence : YesDelete leading and trailing silent blocks : NoNull samples used in CRC calculations : YesUsed interface : Installed external ASPI interfaceGap handling : Appended to previous track

Used output format : User Defined EncoderSelected bitrate : 768 kBit/sQuality : HighAdd ID3 tag : NoCommand line compressor : C:\Program Files\Exact Audio Copy pb5\Exact Audio Copy\Flac\flac.exeAdditional command line options : -6 -V -T "ARTIST=%a" -T "TITLE=%t" -T "ALBUM=%g" -T "DATE=%y" -T "TRACKNUMBER=%n" -T "GENRE=%m" -T "COMMENT=%e" %s -o %d

TOC of the extracted CD

Track | Start | Length | Start sector | End sector --------------------------------------------------------- 1 | 0:00.00 | 5:44.37 | 0 | 25836 2 | 5:44.37 | 7:21.63 | 25837 | 58974 3 | 13:06.25 | 6:27.00 | 58975 | 87999 4 | 19:33.25 | 9:37.10 | 88000 | 131284 5 | 29:10.35 | 6:08.42 | 131285 | 158926 6 | 35:19.02 | 9:38.55 | 158927 | 202331 7 | 44:57.57 | 4:57.08 | 202332 | 224614

Track 1

Filename C:\Rips\01 - Ed' Oxum.wav

Pre-gap length 0:00:02.00

Peak level 100.0 % Track quality 100.0 % Test CRC 14392460 Copy CRC 14392460 Accurately ripped (confidence 2) [E8C8F4E2] Copy OK

Track 2

Filename C:\Rips\02 - Emergency.wav

Pre-gap length 0:00:01.29

Peak level 100.0 % Track quality 100.0 % Test CRC B8EA61D0 Copy CRC B8EA61D0 Accurately ripped (confidence 2) [054F6D97] Copy OK

Track 3

Filename C:\Rips\03 - Exotica.wav

Pre-gap length 0:00:02.28

Peak level 100.0 % Track quality 100.0 % Test CRC AFDF1A66 Copy CRC AFDF1A66 Accurately ripped (confidence 2) [1F422743] Copy OK

Track 4

Filename C:\Rips\04 - Good People.wav

Pre-gap length 0:00:01.64

Peak level 100.0 % Track quality 99.9 % Test CRC 1529E8C2 Copy CRC 1529E8C2 Accurately ripped (confidence 2) [885D70D6] Copy OK

Track 5

Filename C:\Rips\05 - Diane.wav

Pre-gap length 0:00:03.72

Peak level 100.0 % Track quality 99.8 % Test CRC A21587BC Copy CRC A21587BC Accurately ripped (confidence 2) [3EE204E8] Copy OK

Track 6

Filename C:\Rips\06 - Flor de Canela.wav

Pre-gap length 0:00:00.50

Peak level 92.8 % Track quality 100.0 % Test CRC 18C69D09 Copy CRC 18C69D09 Accurately ripped (confidence 2) [88313F58] Copy OK

Track 7

Filename C:\Rips\07 - Naaman.wav

Pre-gap length 0:00:01.26

Peak level 100.0 % Track quality 100.0 % Test CRC 2B874F1F Copy CRC 2B874F1F Accurately ripped (confidence 2) [2DF7AA41] Copy OK

All tracks accurately ripped

No errors occurred

End of status report
 
REM GENRE JazzREM DATE 1997REM DISCID 630BB207REM COMMENT "ExactAudioCopy v0.99pb5"PERFORMER "Javon Jackson"TITLE "Good People"FILE "01 - Ed' Oxum.wav" WAVE TRACK 01 AUDIO TITLE "Ed' Oxum" PERFORMER "Javon Jackson" INDEX 01 00:00:00 TRACK 02 AUDIO TITLE "Emergency" PERFORMER "Javon Jackson" INDEX 00 05:43:15FILE "02 - Emergency.wav" WAVE INDEX 01 00:00:00 TRACK 03 AUDIO TITLE "Exotica" PERFORMER "Javon Jackson" INDEX 00 07:19:42FILE "03 - Exotica.wav" WAVE INDEX 01 00:00:00 TRACK 04 AUDIO TITLE "Good People" PERFORMER "Javon Jackson" INDEX 00 06:25:27FILE "04 - Good People.wav" WAVE INDEX 01 00:00:00 TRACK 05 AUDIO TITLE "Diane" PERFORMER "Javon Jackson" INDEX 00 09:33:31FILE "05 - Diane.wav" WAVE INDEX 01 00:00:00 TRACK 06 AUDIO TITLE "Flor de Canela" PERFORMER "Javon Jackson" INDEX 00 06:08:04FILE "06 - Flor de Canela.wav" WAVE INDEX 01 00:00:00 TRACK 07 AUDIO TITLE "Naaman" PERFORMER "Javon Jackson" INDEX 00 09:37:35FILE "07 - Naaman.wav" WAVE INDEX 01 00:00:00
Javon Jackson (tenor saxophone)
John Medeski (keyboards)
Vernon Reid, Fareed Haque (guitar)
Peter Washington (bass)
Billy Drummond (drums)
Cyro Baptista (percussion)


Трекер:  [ 29-Янв-2012 15:00 ]

  

Скачать .torrent

Размер .torrent файла 15 KB


Размер: 351 MB
Хэш (hash) релиза: fec5d55cb4c1014c43e961cbed7029306255ef3e

Еще никто не оставлял запись к записи скачать торрент Javon Jackson - Good People - 1997, FLAC . Будь первым!

!Обратная связь