Скачать через торрент музыку Bob Brookmeyer, Jimmy Cleveland, Frank Rosolino - The Trombones Inc. - 2007, FLAC бесплатно без регистрации torrent

Если у вас наблюдаются проблемы со скриншотами, переходом по ссылками, скачиванием торрентов - проблемы в блокировщике рекламы AdBlock. #хорошегоДня!


Статистика раздачи
Размер:  300 MB   |    Зарегистрирован:  5 лет 8 месяцев   |    .torrent скачан:  15 раз   |   
Раздают:  1  
   
Загрузка...
 
Автор Сообщение

Umakiro

avatar Umakiro


Bob Brookmeyer, Jimmy Cleveland, Frank Rosolino - The Trombones Inc.

Жанр: Cool
Год издания диска: 2007
Издатель (лейбл): Lonehill Jazz Spain
Аудиокодек: FLAC (*.flac)
Тип рипа: tracks+.cue
Битрейт аудио: lossless
Продолжительность: 00:50:10
Источник (релизер): fcom
Наличие сканов в содержимом раздачи: нет
01. Neckbones [04:01]
02. Dues Blues [06:57]
03. Long Before I Knew [03:59]
04. Soft Winds [03:55]
05. Tee Jay [04:08]
06. Lassus Trombone [03:08]
07. It's All Right With Me [03:27]
08. Polka Dots And Moonbeams [03:54]
09. Old Devil Moon [03:57]
10. Impossible [04:54]
11. Heat Wave [03:19]
12. I Found A New Baby [04:25]

Arrangers: Jay Jay Johnson; Marty Paich; Warren Barker

Liner Note Authors: George Avakian; Alvino Rey
 
Exact Audio Copy V0.99 prebeta 5 from 4. May 2009

EAC extraction logfile from 29. December 2011, 14:11

The Trombones Inc. / The Trombones Inc.

Used drive : HL-DT-STBDDVDRW CH08LS10 Adapter: 1 ID: 0

Read mode : SecureUtilize accurate stream : YesDefeat audio cache : YesMake use of C2 pointers : No

Read offset correction : 667Overread into Lead-In and Lead-Out : NoFill up missing offset samples with silence : YesDelete leading and trailing silent blocks : NoNull samples used in CRC calculations : YesUsed interface : Installed external ASPI interfaceGap handling : Appended to previous track

Used output format : User Defined EncoderSelected bitrate : 128 kBit/sQuality : HighAdd ID3 tag : NoCommand line compressor : C:\Archivos de programa\Exact Audio Copy\Flac\flac.exeAdditional command line options : -8 -V -T "ARTIST=%a" -T "TITLE=%t" -T "ALBUM=%g" -T "DATE=%y" -T "TRACKNUMBER=%n" -T "TOTALTRACKS=%x" -T "GENRE=%m" -T "ALBUM ARTIST=%v" -T "ALBUMARTIST=%v" -T "COMMENT=EAC V0.99 pb5, Secure Mode, Test&Copy, AccurateRip, FL

TOC of the extracted CD

Track | Start | Length | Start sector | End sector --------------------------------------------------------- 1 | 0:00.01 | 4:01.44 | 1 | 18119 2 | 4:01.45 | 6:57.51 | 18120 | 49445 3 | 10:59.21 | 3:59.45 | 49446 | 67415 4 | 14:58.66 | 3:55.18 | 67416 | 85058 5 | 18:54.09 | 4:08.59 | 85059 | 103717 6 | 23:02.68 | 3:08.14 | 103718 | 117831 7 | 26:11.07 | 3:27.50 | 117832 | 133406 8 | 29:38.57 | 3:54.14 | 133407 | 150970 9 | 33:32.71 | 3:57.70 | 150971 | 168815 10 | 37:30.66 | 4:54.61 | 168816 | 190926 11 | 42:25.52 | 3:19.51 | 190927 | 205902 12 | 45:45.28 | 4:25.29 | 205903 | 225806

Track 1

Filename C:\users\fcom\Escritorio\[001] Directio de EAC\01 - Neckbones.wav

Pre-gap length 0:00:02.01

Peak level 92.7 % Track quality 100.0 % Test CRC BE8260D2 Copy CRC BE8260D2 Accurately ripped (confidence 4) [3D9A8516] Copy OK

Track 2

Filename C:\users\fcom\Escritorio\[001] Directio de EAC\02 - Dues Blues.wav

Peak level 94.6 % Track quality 100.0 % Test CRC 2C318946 Copy CRC 2C318946 Accurately ripped (confidence 4) [305CB188] Copy OK

Track 3

Filename C:\users\fcom\Escritorio\[001] Directio de EAC\03 - Long Before I Knew.wav

Peak level 80.2 % Track quality 100.0 % Test CRC 22C8049C Copy CRC 22C8049C Accurately ripped (confidence 4) [9FCD04AA] Copy OK

Track 4

Filename C:\users\fcom\Escritorio\[001] Directio de EAC\04 - Soft Winds.wav

Peak level 80.4 % Track quality 100.0 % Test CRC 39BD31FE Copy CRC 39BD31FE Accurately ripped (confidence 4) [E986A4B9] Copy OK

Track 5

Filename C:\users\fcom\Escritorio\[001] Directio de EAC\05 - Tee Jay.wav

Peak level 93.2 % Track quality 100.0 % Test CRC 28DC9D87 Copy CRC 28DC9D87 Accurately ripped (confidence 4) [3D7172E8] Copy OK

Track 6

Filename C:\users\fcom\Escritorio\[001] Directio de EAC\06 - Lassus Trombone.wav

Peak level 86.7 % Track quality 100.0 % Test CRC 9C323CA8 Copy CRC 9C323CA8 Accurately ripped (confidence 4) [12BA912A] Copy OK

Track 7

Filename C:\users\fcom\Escritorio\[001] Directio de EAC\07 - It's All Right With Me.wav

Peak level 90.8 % Track quality 100.0 % Test CRC 03980D30 Copy CRC 03980D30 Accurately ripped (confidence 4) [86C06BB8] Copy OK

Track 8

Filename C:\users\fcom\Escritorio\[001] Directio de EAC\08 - Polka Dots And Moonbeams.wav

Peak level 87.7 % Track quality 100.0 % Test CRC 196CD3DC Copy CRC 196CD3DC Accurately ripped (confidence 4) [281A118B] Copy OK

Track 9

Filename C:\users\fcom\Escritorio\[001] Directio de EAC\09 - Old Devil Moon.wav

Peak level 97.4 % Track quality 100.0 % Test CRC A37C9BE6 Copy CRC A37C9BE6 Accurately ripped (confidence 4) [693D5DEE] Copy OK

Track 10

Filename C:\users\fcom\Escritorio\[001] Directio de EAC\10 - Impossible.wav

Peak level 90.6 % Track quality 100.0 % Test CRC 2F58EB00 Copy CRC 2F58EB00 Accurately ripped (confidence 4) [85E407A3] Copy OK

Track 11

Filename C:\users\fcom\Escritorio\[001] Directio de EAC\11 - Heat Wave.wav

Peak level 84.9 % Track quality 100.0 % Test CRC 3AE52AC9 Copy CRC 3AE52AC9 Accurately ripped (confidence 4) [53FD80CB] Copy OK

Track 12

Filename C:\users\fcom\Escritorio\[001] Directio de EAC\12 - I Found A New Baby.wav

Peak level 87.0 % Track quality 100.0 % Test CRC 4E8ED370 Copy CRC 4E8ED370 Accurately ripped (confidence 4) [B14B0583] Copy OK

All tracks accurately ripped

No errors occurred

End of status report
 
REM GENRE JazzREM DATE 2006REM DISCID 940BC20CREM COMMENT "ExactAudioCopy v0.99pb5"PERFORMER "The Trombones Inc."TITLE "The Trombones Inc."FILE "01 - Neckbones.wav" WAVE TRACK 01 AUDIO TITLE "Neckbones" PERFORMER "The Trombones Inc." PREGAP 00:00:01 INDEX 01 00:00:00FILE "02 - Dues Blues.wav" WAVE TRACK 02 AUDIO TITLE "Dues Blues" PERFORMER "The Trombones Inc." INDEX 01 00:00:00FILE "03 - Long Before I Knew.wav" WAVE TRACK 03 AUDIO TITLE "Long Before I Knew" PERFORMER "The Trombones Inc." INDEX 01 00:00:00FILE "04 - Soft Winds.wav" WAVE TRACK 04 AUDIO TITLE "Soft Winds" PERFORMER "The Trombones Inc." INDEX 01 00:00:00FILE "05 - Tee Jay.wav" WAVE TRACK 05 AUDIO TITLE "Tee Jay" PERFORMER "The Trombones Inc." INDEX 01 00:00:00FILE "06 - Lassus Trombone.wav" WAVE TRACK 06 AUDIO TITLE "Lassus Trombone" PERFORMER "The Trombones Inc." INDEX 01 00:00:00FILE "07 - It's All Right With Me.wav" WAVE TRACK 07 AUDIO TITLE "It's All Right With Me" PERFORMER "The Trombones Inc." INDEX 01 00:00:00FILE "08 - Polka Dots And Moonbeams.wav" WAVE TRACK 08 AUDIO TITLE "Polka Dots And Moonbeams" PERFORMER "The Trombones Inc." INDEX 01 00:00:00FILE "09 - Old Devil Moon.wav" WAVE TRACK 09 AUDIO TITLE "Old Devil Moon" PERFORMER "The Trombones Inc." INDEX 01 00:00:00FILE "10 - Impossible.wav" WAVE TRACK 10 AUDIO TITLE "Impossible" PERFORMER "The Trombones Inc." INDEX 01 00:00:00FILE "11 - Heat Wave.wav" WAVE TRACK 11 AUDIO TITLE "Heat Wave" PERFORMER "The Trombones Inc." INDEX 01 00:00:00FILE "12 - I Found A New Baby.wav" WAVE TRACK 12 AUDIO TITLE "I Found A New Baby" PERFORMER "The Trombones Inc." INDEX 01 00:00:00
Barney Kessel (guitar); Milt Bernhart, Bob Fitzpatrick, Robert Alexander , Dick Nash , Eddie Bert, Frank Beach, Frank Rehak, Frank Rosolino, Henry Coker, Herbie Harper, Eddie Kusby, Marshal Cram, Jimmy Cleveland, Melba Liston, Murray McEachern, Bennie Green , Benny Powell, Tommy Pederson , Dave Wells (trombone); George Martimore Roberts, Kenny Shroyer, Dick Hickson, Bart Varsalona (bass trombone); Bob Brookmeyer (valve trombone); John Kitzmiller (tuba); Hank Jones Great Jazz Trio , Hank Jones , Marty Paich (piano); Mel Lewis, Osie Johnson (drums); Mike Pacheco (bongos)


Трекер:  [ 29-Янв-2012 15:00 ]

  

Скачать .torrent

Размер .torrent файла 13 KB


Размер: 300 MB
Хэш (hash) релиза: 5b848610da138e0957365807a9bd56ce5761780b

Еще никто не оставлял запись к записи скачать торрент Bob Brookmeyer, Jimmy Cleveland, Frank Rosolino - The Trombones Inc. - 2007, FLAC . Будь первым!

!Обратная связь