Скачать через торрент музыку Gerry Mulligan - Mulligan Plays Mulligan - 1982, FLAC бесплатно без регистрации torrent

Если у вас наблюдаются проблемы со скриншотами, переходом по ссылками, скачиванием торрентов - проблемы в блокировщике рекламы AdBlock. #хорошегоДня!


Статистика раздачи
Размер:  189 MB   |    Зарегистрирован:  5 лет 8 месяцев   |    .torrent скачан:  22 раза   |   
Раздают:  1  
   
Загрузка...
 
Автор Сообщение

Umakiro

avatar Umakiro


Gerry Mulligan - Mulligan Plays Mulligan

Жанр: Cool, West Coast Jazz
Страна-производитель диска: USA
Год издания диска: 1982
Издатель (лейбл): Prestige/OJC
Номер по каталогу: OJCCD-003-2 / P7006
Страна: USA New York, NY
Аудиокодек: FLAC (*.flac)
Тип рипа: tracks+.cue
Битрейт аудио: lossless
Продолжительность: 00:38:10
Источник (релизер): SapoMalo
Наличие сканов в содержимом раздачи: да
01. Funhouse [03:15]
02. Ide's Side [03:22]
03. Roundhouse [03:35]
04. Kaper [03:13]
05. Bweebida Bobbida [03:02]
06. Mullenium [04:06]
07. Mulligan's Too [17:37]

Recorded at the Van Gelder Studio, Hackensack, New Jersey on August 27, 1951
 
Exact Audio Copy V0.99 prebeta 4 from 23. January 2008

EAC extraction logfile from 4. August 2010, 16:04

Gerry Mulligan / Mulligan Plays Mulligan

Used drive : HL-DT-STDVDRAM GH22NS50 Adapter: 2 ID: 1

Read mode : SecureUtilize accurate stream : YesDefeat audio cache : YesMake use of C2 pointers : No

Read offset correction : 667Overread into Lead-In and Lead-Out : NoFill up missing offset samples with silence : YesDelete leading and trailing silent blocks : NoNull samples used in CRC calculations : YesUsed interface : Native Win32 interface for Win NT & 2000Gap handling : Appended to previous track

Used output format : User Defined EncoderSelected bitrate : 768 kBit/sQuality : HighAdd ID3 tag : NoCommand line compressor : C:\Program Files\Exact Audio Copy\Flac\flac.exeAdditional command line options : -8 -V -T "ARTIST=%a" -T "TITLE=%t" -T "ALBUM=%g" -T "DATE=%y" -T "TRACKNUMBER=%n" -T "TOTALTRACKS=%x" -T "GENRE=%m" -T "ALBUMARTIST=%v" -T "ALBUM ARTIST=%v" -T "COMMENT=EAC Secure Mode, Test & Copy, AccurateRip, FLAC -8" %s

TOC of the extracted CD

Track | Start | Length | Start sector | End sector --------------------------------------------------------- 1 | 0:00.00 | 3:15.60 | 0 | 14684 2 | 3:15.60 | 3:22.22 | 14685 | 29856 3 | 6:38.07 | 3:35.73 | 29857 | 46054 4 | 10:14.05 | 3:13.20 | 46055 | 60549 5 | 13:27.25 | 3:02.37 | 60550 | 74236 6 | 16:29.62 | 4:06.33 | 74237 | 92719 7 | 20:36.20 | 17:37.05 | 92720 | 171999

Track 1

Filename D:\My Rips\01 - Funhouse.wav

Pre-gap length 0:00:02.00

Peak level 71.8 % Track quality 100.0 % Test CRC 5CF37211 Copy CRC 5CF37211 Accurately ripped (confidence 1) [DED494B0] Copy OK

Track 2

Filename D:\My Rips\02 - Ide's Side.wav

Pre-gap length 0:00:02.97

Peak level 79.5 % Track quality 100.0 % Test CRC D29775E5 Copy CRC D29775E5 Accurately ripped (confidence 1) [1B82E31E] Copy OK

Track 3

Filename D:\My Rips\03 - Roundhouse.wav

Pre-gap length 0:00:03.16

Peak level 70.0 % Track quality 100.0 % Test CRC ECE53F28 Copy CRC ECE53F28 Accurately ripped (confidence 1) [E120AD18] Copy OK

Track 4

Filename D:\My Rips\04 - Kaper.wav

Pre-gap length 0:00:03.13

Peak level 64.4 % Track quality 99.9 % Test CRC 82A10E7D Copy CRC 82A10E7D Accurately ripped (confidence 1) [5A04DF4A] Copy OK

Track 5

Filename D:\My Rips\05 - Bweebida Bobbida.wav

Pre-gap length 0:00:03.66

Peak level 84.2 % Track quality 100.0 % Test CRC F99C7D43 Copy CRC F99C7D43 Accurately ripped (confidence 1) [E62FB50D] Copy OK

Track 6

Filename D:\My Rips\06 - Mullenium.wav

Pre-gap length 0:00:03.09

Peak level 69.7 % Track quality 100.0 % Test CRC 6951E15A Copy CRC 6951E15A Accurately ripped (confidence 1) [CF6E1717] Copy OK

Track 7

Filename D:\My Rips\07 - Mulligan's Too.wav

Pre-gap length 0:00:01.84

Peak level 78.3 % Track quality 100.0 % Test CRC 3AD8559E Copy CRC 3AD8559E Accurately ripped (confidence 1) [C54CEA92] Copy OK

All tracks accurately ripped

No errors occurred

End of status report
 
REM GENRE JazzREM DATE 1951REM DISCID 5608F507REM COMMENT "ExactAudioCopy v0.99pb4"PERFORMER "Gerry Mulligan"TITLE "Mulligan Plays Mulligan"FILE "01 - Funhouse.wav" WAVE TRACK 01 AUDIO TITLE "Funhouse" PERFORMER "Gerry Mulligan" INDEX 01 00:00:00 TRACK 02 AUDIO TITLE "Ide's Side" PERFORMER "Gerry Mulligan" INDEX 00 03:12:62FILE "02 - Ide's Side.wav" WAVE INDEX 01 00:00:00 TRACK 03 AUDIO TITLE "Roundhouse" PERFORMER "Gerry Mulligan" INDEX 00 03:19:10FILE "03 - Roundhouse.wav" WAVE INDEX 01 00:00:00 TRACK 04 AUDIO TITLE "Kaper" PERFORMER "Gerry Mulligan" INDEX 00 03:32:63FILE "04 - Kaper.wav" WAVE INDEX 01 00:00:00 TRACK 05 AUDIO TITLE "Bweebida Bobbida" PERFORMER "Gerry Mulligan" INDEX 00 03:09:45FILE "05 - Bweebida Bobbida.wav" WAVE INDEX 01 00:00:00 TRACK 06 AUDIO TITLE "Mullenium" PERFORMER "Gerry Mulligan" INDEX 00 02:59:30FILE "06 - Mullenium.wav" WAVE INDEX 01 00:00:00 TRACK 07 AUDIO TITLE "Mulligan's Too" PERFORMER "Gerry Mulligan" INDEX 00 04:04:45FILE "07 - Mulligan's Too.wav" WAVE INDEX 01 00:00:00
Gerry Mulligan (baritone saxophone)
Allen Eager (tenor saxophone)
Max McElroy (baritone saxophone)
Jerry Hurwitz, Nick Travis (trumpet)
Ollie Wilson (trombone)
George Wallington (piano)
Phil Leshin (bass);
Walter Bolden (drums)
Gail Madden (maracas)


Трекер:  [ 29-Янв-2012 15:00 ]

  

Скачать .torrent

Размер .torrent файла 16 KB


Размер: 189 MB
Хэш (hash) релиза: e337ec6c884cf7240e92c634a0ab7f486cfb4c56

Еще никто не оставлял запись к записи скачать торрент Gerry Mulligan - Mulligan Plays Mulligan - 1982, FLAC . Будь первым!

!Обратная связь