Скачать через торрент музыку Wes Montgomery - The Artistry of Wes Montgomery - бесплатно без регистрации torrent

Если у вас наблюдаются проблемы со скриншотами, переходом по ссылками, скачиванием торрентов - проблемы в блокировщике рекламы AdBlock. #хорошегоДня!


Статистика раздачи
Размер:  377 MB   |    Зарегистрирован:  5 лет 8 месяцев   |    .torrent скачан:  28 раз   |   
Раздают:  1  
   
Загрузка...
 
Автор Сообщение

Umakiro

avatar Umakiro


Wes Montgomery - The Artistry of Wes Montgomery

Жанр: Hard Bop
Страна-производитель диска: E.U
Год издания диска: (1963) - 1986
Издатель (лейбл): Riverside
Номер по каталогу: 0002518301923
Страна: USA Indianapolis, IN
Аудиокодек: FLAC (*.flac)
Тип рипа: tracks+.cue
Битрейт аудио: lossless
Продолжительность: 01:05:34
Источник (релизер): anonymous
Наличие сканов в содержимом раздачи: да
01. 'Round Midnight [04:56]
02. Four On Six [06:19]
03. Klactoveedsedstene [10:00]
04. Says You [05:01]
05. Remember [05:40]
06. Cotton Tail [03:41]
07. Jingles [06:53]
08. Cariba [09:41]
09. Tune Up [03:10]
10. Dearly Beloved [04:53]
11. Freddie The Freeloader [05:15]30.12.2011 - торрент перезалит, добавлен корректный рип.
 
X Lossless Decoder version 20110312 (130.0)

XLD extraction logfile from 2011-03-26 21:44:11 -0400

Wes Montgomery / The Artistry Of Wes Montgomery

Used drive : OPTIARC DVD RW AD-5670S (revision 2AHI)

Ripper mode : XLD Secure RipperDisable audio cache : OK for the drive with a cache less than 1375KiBMake use of C2 pointers : NORead offset correction : 48Max retry count : 100Gap status : Analyzed, Appended (except HTOA)

TOC of the extracted CD Track | Start | Length | Start sector | End sector --------------------------------------------------------- 1 | 00:00:00 | 04:56:50 | 0 | 22249 2 | 04:56:50 | 06:19:00 | 22250 | 50674 3 | 11:15:50 | 10:00:27 | 50675 | 95701 4 | 21:16:02 | 05:01:20 | 95702 | 118296 5 | 26:17:22 | 05:40:18 | 118297 | 143814 6 | 31:57:40 | 03:41:25 | 143815 | 160414 7 | 35:38:65 | 06:53:67 | 160415 | 191456 8 | 42:32:57 | 09:41:38 | 191457 | 235069 9 | 52:14:20 | 03:10:50 | 235070 | 249369 10 | 55:24:70 | 04:53:60 | 249370 | 271404 11 | 60:18:55 | 05:15:45 | 271405 | 295074

List of alternate offset correction values # | Absolute | Relative | Confidence ------------------------------------------ 1 | -236 | -284 | 4 2 | 877 | 829 | 3

AccurateRip Summary Track 01 : OK (confidence 4, with different offset) Track 02 : OK (confidence 4, with different offset) Track 03 : OK (confidence 4, with different offset) Track 04 : OK (confidence 4, with different offset) Track 05 : OK (confidence 4, with different offset) Track 06 : OK (confidence 4, with different offset) Track 07 : OK (confidence 4, with different offset) Track 08 : OK (confidence 4, with different offset) Track 09 : OK (confidence 4, with different offset) Track 10 : OK (confidence 4, with different offset) Track 11 : OK (confidence 3, with different offset) ->All tracks accurately ripped.

All Tracks Album gain : 1.05 dB Peak : 0.999725 Statistics Read error : 0 Jitter error (maybe fixed) : 0 Retry sector count : 0 Damaged sector count : 0

Track 01 Filename : /Users/XLD/01 - 'Round Midnight.flac Pre-gap length : 00:02:00

Track gain : 2.74 dB Peak : 0.539734 CRC32 hash (test run) : AE3C8D92 CRC32 hash : AE3C8D92 CRC32 hash (skip zero) : 835082A8 AccurateRip signature : AF13104C ->Accurately ripped! (confidence 4) (matched with the different offset correction value; calculated using an additional offset of -284; the signature after correction is: 343367E3) Statistics Read error : 0 Jitter error (maybe fixed) : 0 Retry sector count : 0 Damaged sector count : 0

Track 02 Filename : /Users/XLD/02 - Four On Six.flac Pre-gap length : 00:03:20

Track gain : 1.79 dB Peak : 0.550751 CRC32 hash (test run) : 0DEBB6AC CRC32 hash : 0DEBB6AC CRC32 hash (skip zero) : 5109AE18 AccurateRip signature : 864C5E67 ->Accurately ripped! (confidence 4) (matched with the different offset correction value; calculated using an additional offset of -284; the signature after correction is: 48F581E6) Statistics Read error : 0 Jitter error (maybe fixed) : 0 Retry sector count : 0 Damaged sector count : 0

Track 03 Filename : /Users/XLD/03 - Klactoveedsedstene.flac Pre-gap length : 00:02:13

Track gain : 1.02 dB Peak : 0.694672 CRC32 hash (test run) : DA62A7B4 CRC32 hash : DA62A7B4 CRC32 hash (skip zero) : 7E982853 AccurateRip signature : 660BF941 ->Accurately ripped! (confidence 4) (matched with the different offset correction value; calculated using an additional offset of -284; the signature after correction is: B66BBD50) Statistics Read error : 0 Jitter error (maybe fixed) : 0 Retry sector count : 0 Damaged sector count : 0

Track 04 Filename : /Users/XLD/04 - Says You.flac Pre-gap length : 00:03:32

Track gain : -0.18 dB Peak : 0.999725 CRC32 hash (test run) : 0785CBAC CRC32 hash : 0785CBAC CRC32 hash (skip zero) : AC32C2CB AccurateRip signature : 69763850 ->Accurately ripped! (confidence 4) (matched with the different offset correction value; calculated using an additional offset of -284; the signature after correction is: C915FEB4) Statistics Read error : 0 Jitter error (maybe fixed) : 0 Retry sector count : 0 Damaged sector count : 0

Track 05 Filename : /Users/XLD/05 - Remember.flac Pre-gap length : 00:00:67

Track gain : 3.43 dB Peak : 0.472565 CRC32 hash (test run) : 52348A73 CRC32 hash : 52348A73 CRC32 hash (skip zero) : 9470C6BB AccurateRip signature : 6194A682 ->Accurately ripped! (confidence 4) (matched with the different offset correction value; calculated using an additional offset of -284; the signature after correction is: 8A676ADD) Statistics Read error : 0 Jitter error (maybe fixed) : 0 Retry sector count : 0 Damaged sector count : 0

Track 06 Filename : /Users/XLD/06 - Cotton Tail.flac Pre-gap length : 00:03:45

Track gain : 1.79 dB Peak : 0.545441 CRC32 hash (test run) : C498BF30 CRC32 hash : C498BF30 CRC32 hash (skip zero) : A22B24C9 AccurateRip signature : 7BB62806 ->Accurately ripped! (confidence 4) (matched with the different offset correction value; calculated using an additional offset of -284; the signature after correction is: 09F8FFF7) Statistics Read error : 0 Jitter error (maybe fixed) : 0 Retry sector count : 0 Damaged sector count : 0

Track 07 Filename : /Users/XLD/07 - Jingles.flac Pre-gap length : 00:02:63

Track gain : 1.56 dB Peak : 0.739624 CRC32 hash (test run) : 2F97B0FE CRC32 hash : 2F97B0FE CRC32 hash (skip zero) : 9DD811A5 AccurateRip signature : 71D0715A ->Accurately ripped! (confidence 4) (matched with the different offset correction value; calculated using an additional offset of -284; the signature after correction is: CFF34DB3) Statistics Read error : 0 Jitter error (maybe fixed) : 0 Retry sector count : 0 Damaged sector count : 0

Track 08 Filename : /Users/XLD/08 - Cariba.flac Pre-gap length : 00:03:27

Track gain : -0.11 dB Peak : 0.773102 CRC32 hash (test run) : 25DDA7DC CRC32 hash : 25DDA7DC CRC32 hash (skip zero) : 649D5402 AccurateRip signature : D0F14FC7 ->Accurately ripped! (confidence 4) (matched with the different offset correction value; calculated using an additional offset of -284; the signature after correction is: BB8C2EB0) Statistics Read error : 0 Jitter error (maybe fixed) : 0 Retry sector count : 0 Damaged sector count : 0

Track 09 Filename : /Users/XLD/09 - Tune Up.flac Pre-gap length : 00:01:23

Track gain : 0.56 dB Peak : 0.518616 CRC32 hash (test run) : 1BC82A07 CRC32 hash : 1BC82A07 CRC32 hash (skip zero) : 5DB05CC0 AccurateRip signature : 86D4DD3A ->Accurately ripped! (confidence 4) (matched with the different offset correction value; calculated using an additional offset of -284; the signature after correction is: 26AEC614) Statistics Read error : 0 Jitter error (maybe fixed) : 0 Retry sector count : 0 Damaged sector count : 0

Track 10 Filename : /Users/XLD/10 - Dearly Beloved.flac Pre-gap length : 00:01:28

Track gain : 1.87 dB Peak : 0.784790 CRC32 hash (test run) : 91B4CE73 CRC32 hash : 91B4CE73 CRC32 hash (skip zero) : 22F0DA56 AccurateRip signature : C934CB66 ->Accurately ripped! (confidence 4) (matched with the different offset correction value; calculated using an additional offset of -284; the signature after correction is: 14CE826C) Statistics Read error : 0 Jitter error (maybe fixed) : 0 Retry sector count : 0 Damaged sector count : 0

Track 11 Filename : /Users/XLD/11 - Freddie The Freeloader.flac Pre-gap length : 00:02:10

Track gain : 1.06 dB Peak : 0.640198 CRC32 hash (test run) : B914EF88 CRC32 hash : B914EF88 CRC32 hash (skip zero) : 12BBC4FD AccurateRip signature : 2ADAE7BF ->Accurately ripped! (confidence 3) (matched with the different offset correction value; calculated using an additional offset of -284; the signature after correction is: A2457D49) Statistics Read error : 0 Jitter error (maybe fixed) : 0 Retry sector count : 0 Damaged sector count : 0

No errors occurred

End of status report
 
TITLE "The Artistry Of Wes Montgomery"PERFORMER "Wes Montgomery"REM GENRE "Jazz"REM DATE "1986"REM DISCNUMBER 1REM TOTALDISCS 1REM DISCID A20F5E0BREM REPLAYGAIN_ALBUM_GAIN 1.05 dBREM REPLAYGAIN_ALBUM_PEAK 0.999725FILE "01 - 'Round Midnight.wav" WAVE TRACK 01 AUDIO TITLE "'Round Midnight" SONGWRITER "Cootie Williams/Bernie Hanighen/Thelonious Monk" REM REPLAYGAIN_TRACK_GAIN 2.74 dB REM REPLAYGAIN_TRACK_PEAK 0.539734 INDEX 01 00:00:00 TRACK 02 AUDIO TITLE "Four On Six" SONGWRITER "Wes Montgomery" REM REPLAYGAIN_TRACK_GAIN 1.79 dB REM REPLAYGAIN_TRACK_PEAK 0.550751 INDEX 00 04:53:30FILE "02 - Four On Six.wav" WAVE INDEX 01 00:00:00 TRACK 03 AUDIO TITLE "Klactoveedsedstene" SONGWRITER "Charlie Parker" REM REPLAYGAIN_TRACK_GAIN 1.02 dB REM REPLAYGAIN_TRACK_PEAK 0.694672 INDEX 00 06:16:62FILE "03 - Klactoveedsedstene.wav" WAVE INDEX 01 00:00:00 TRACK 04 AUDIO TITLE "Says You" SONGWRITER "Wes Montgomery" REM REPLAYGAIN_TRACK_GAIN -0.18 dB REM REPLAYGAIN_TRACK_PEAK 0.999725 INDEX 00 09:56:70FILE "04 - Says You.wav" WAVE INDEX 01 00:00:00 TRACK 05 AUDIO TITLE "Remember" SONGWRITER "Carl Perkins" REM REPLAYGAIN_TRACK_GAIN 3.43 dB REM REPLAYGAIN_TRACK_PEAK 0.472565 INDEX 00 05:00:28FILE "05 - Remember.wav" WAVE INDEX 01 00:00:00 TRACK 06 AUDIO TITLE "Cotton Tail" SONGWRITER "Duke Ellington" REM REPLAYGAIN_TRACK_GAIN 1.79 dB REM REPLAYGAIN_TRACK_PEAK 0.545441 INDEX 00 05:36:48FILE "06 - Cotton Tail.wav" WAVE INDEX 01 00:00:00 TRACK 07 AUDIO TITLE "Jingles" SONGWRITER "Wes Montgomery" REM REPLAYGAIN_TRACK_GAIN 1.56 dB REM REPLAYGAIN_TRACK_PEAK 0.739624 INDEX 00 03:38:37FILE "07 - Jingles.wav" WAVE INDEX 01 00:00:00 TRACK 08 AUDIO TITLE "Cariba" SONGWRITER "Wes Montgomery" REM REPLAYGAIN_TRACK_GAIN -0.11 dB REM REPLAYGAIN_TRACK_PEAK 0.773102 INDEX 00 06:50:40FILE "08 - Cariba.wav" WAVE INDEX 01 00:00:00 TRACK 09 AUDIO TITLE "Tune Up" SONGWRITER "Miles Davis" REM REPLAYGAIN_TRACK_GAIN 0.56 dB REM REPLAYGAIN_TRACK_PEAK 0.518616 INDEX 00 09:40:15FILE "09 - Tune Up.wav" WAVE INDEX 01 00:00:00 TRACK 10 AUDIO TITLE "Dearly Beloved" SONGWRITER "Jerome Kern/Johnny Mercer" REM REPLAYGAIN_TRACK_GAIN 1.87 dB REM REPLAYGAIN_TRACK_PEAK 0.784790 INDEX 00 03:09:22FILE "10 - Dearly Beloved.wav" WAVE INDEX 01 00:00:00 TRACK 11 AUDIO TITLE "Freddie The Freeloader" SONGWRITER "Miles Davis" REM REPLAYGAIN_TRACK_GAIN 1.06 dB REM REPLAYGAIN_TRACK_PEAK 0.640198 INDEX 00 04:51:50FILE "11 - Freddie The Freeloader.wav" WAVE INDEX 01 00:00:00
Wes Montgomery (guitar); Kenny Burrell (guitar); Margaret Rose (harp); Winston Collymore, Paul Winter , Sylvan Shulman, Mac Ceppos, Samuel Rand, Isadore Zir, David Nadien, Harry Lookofsky (violin); Ralph Hersh, Burt Fisch (viola); Lucien Schmit, Kermit Moore (cello); Phil Bodner (woodwinds); Harold Land, Johnny Griffin (tenor saxophone); Joe Gordon (trumpet); Victor Feldman, Dick Hyman, Hank Jones , Tommy Flanagan, Barry Harris , Wynton Kelly, Buddy Montgomery (piano); Melvin Rhyne (organ); Milt Jackson (vibraphone); George Brown , Bobby Thomas, Jimmy Cobb , Paul Parker , Albert "Tootie" Heath, Lex Humphries, Louis Hayes, Osie Johnson, Philly Joe Jones (drums); Ray Barretto (congas)


Трекер:  [ 29-Янв-2012 14:59 ]

  

Скачать .torrent

Размер .torrent файла 16 KB


Размер: 377 MB
Хэш (hash) релиза: 877956a31f09b99f2a1947c96f4c22e43feb1a6c

Еще никто не оставлял запись к записи скачать торрент Wes Montgomery - The Artistry of Wes Montgomery - . Будь первым!

!Обратная связь