Скачать через торрент музыку Ray Mantilla Space Station ft. Steve Grossman - Synergy - 1986, APE бесплатно без регистрации torrent

Если у вас наблюдаются проблемы со скриншотами, переходом по ссылками, скачиванием торрентов - проблемы в блокировщике рекламы AdBlock. #хорошегоДня!


Статистика раздачи
Размер:  280 MB   |    Зарегистрирован:  5 лет 8 месяцев   |    .torrent скачан:  21 раз   |   
Раздают:  1  
   
Загрузка...
 
Автор Сообщение

Umakiro

avatar Umakiro


Ray Mantilla Space Station ft. Steve Grossman / Synergy

Жанр: Latin Jazz, Post-Bop, World Fusion
Страна-производитель диска: Italy
Год издания диска: 1986
Издатель (лейбл): Red Records
Номер по каталогу: RED 123198-2
Страна: USA New York, NY
Аудиокодек: APE (*.ape)
Тип рипа: image+.cue
Битрейт аудио: lossless
Продолжительность: 00:446:52
Источник (релизер): сеть
Наличие сканов в содержимом раздачи: да
Треклист:
01. Caminos De Macchu Picchu [06:30]
02. Paisaje [05:21]
03. Star Eyes [10:26]
04. Synergy [02:31]
05. Brother Ray [04:57]
06. Eronel [08:56]
07. Laye [08:11]
 
EAC extraction logfile from 14. October 2010, 15:22 for CDRay Mantilla Space Station & Steve Grossman / Synergy

Used drive : PLEXTOR DVDR PX-750A Adapter: 0 ID: 1Read mode : Secure with NO C2, accurate stream, disable cacheRead offset correction : 102Overread into Lead-In and Lead-Out : No

Used output format : Internal WAV Routines 44.100 Hz; 16 Bit; Stereo

Other options : Fill up missing offset samples with silence : Yes Delete leading and trailing silent blocks : No Installed external ASPI interface

Range status and errorsSelected range Filename E:\Donkey Files\Ray Mantilla, Steve Grossman - Synergy (1986, Red) [eac-ape-scans] byDrBull\CDImage.wav

Peak level 90.7 % Range quality 100.0 % CRC E1C644AD Copy OK

No errors occured

End of status report
 
PERFORMER "Ray Mantilla Space Station & Steve Grossman"TITLE "Synergy"FILE "CDImage.wav" WAVE TRACK 01 AUDIO TITLE "Caminos De Macchu Picchu" PERFORMER "Ray Mantilla Space Station & Steve Grossman" INDEX 00 00:00:00 INDEX 01 00:00:32 TRACK 02 AUDIO TITLE "Paisaje" PERFORMER "Ray Mantilla Space Station & Steve Grossman" INDEX 00 06:30:40 INDEX 01 06:31:40 TRACK 03 AUDIO TITLE "Star Eyes" PERFORMER "Ray Mantilla Space Station & Steve Grossman" INDEX 00 11:51:45 INDEX 01 11:52:45 TRACK 04 AUDIO TITLE "Synergy" PERFORMER "Ray Mantilla Space Station & Steve Grossman" INDEX 00 22:17:10 INDEX 01 22:18:10 TRACK 05 AUDIO TITLE "Brother Ray" PERFORMER "Ray Mantilla Space Station & Steve Grossman" INDEX 00 24:48:55 INDEX 01 24:49:55 TRACK 06 AUDIO TITLE "Eronel" PERFORMER "Ray Mantilla Space Station & Steve Grossman" INDEX 00 29:45:55 INDEX 01 29:46:55 TRACK 07 AUDIO TITLE "Laye" PERFORMER "Ray Mantilla Space Station & Steve Grossman" INDEX 00 38:41:52 INDEX 01 38:42:52
Ray Mantilla (percussion);
Viven Ara Martinez (vocals);
Dick Oatts (flute, saxophone);
Steve Grossman (tenor saxophone);
Eddie Martinez (piano);
Steve Berrios (drums, percussion).


Трекер:  [ 29-Янв-2012 14:59 ]

  

Скачать .torrent

Размер .torrent файла 11 KB


Размер: 280 MB
Хэш (hash) релиза: 2595a5fb1cd68e7a7bcc589e92a941767b47275c

Еще никто не оставлял запись к записи скачать торрент Ray Mantilla Space Station ft. Steve Grossman - Synergy - 1986, APE . Будь первым!

!Обратная связь