Скачать через торрент музыку Jerry Gonzalez & the Fort Apache Band - Crossroads - 1994, APE бесплатно без регистрации torrent

Если у вас наблюдаются проблемы со скриншотами, переходом по ссылками, скачиванием торрентов - проблемы в блокировщике рекламы AdBlock. #хорошегоДня!


Статистика раздачи
Размер:  356 MB   |    Зарегистрирован:  5 лет 8 месяцев   |    .torrent скачан:  20 раз   |   
Раздают:  1  
   
Загрузка...
 
Автор Сообщение

Umakiro

avatar Umakiro


Jerry Gonzalez & the Fort Apache Band - Crossroads

Жанр: Afro-Cuban Jazz, Post-Bop, Trumpet Jazz
Страна-производитель диска: USA
Год издания диска: 1994
Издатель (лейбл): Milestone
Номер по каталогу: MCD-9225-2
Страна: USA NY
Аудиокодек: APE (*.ape)
Тип рипа: image+.cue
Битрейт аудио: lossless
Продолжительность: 00:55:43
Источник (релизер): сеть
Наличие сканов в содержимом раздачи: да
01. Malandro [07:44]
02. Rumba Columbia I [01:11]
03. The Vonce [05:16]
04. Thelingus [06:50]
05. Guaguanco I [00:38]
06. Ezekiel Saw The Wheel [08:45]
07. Rumba Columbia II [00:51]
08. Viva Cepeda [05:01]
09. Lament [07:03]
10. Guaguanco II [00:40]
11. Fort Apache [08:58]
12. Elegua [03:46]
 
EAC extraction logfile from 26. November 2008, 20:18 for CDJerry Gonzalez & The Fort Apache Band / Crossroads

Used drive : PLEXTOR DVDR PX-750A Adapter: 0 ID: 1Read mode : Secure with NO C2, accurate stream, disable cacheRead offset correction : 102Overread into Lead-In and Lead-Out : No

Used output format : Internal WAV Routines 44.100 Hz; 16 Bit; Stereo

Other options : Fill up missing offset samples with silence : Yes Delete leading and trailing silent blocks : No Installed external ASPI interface

Range status and errorsSelected range Filename E:\Donkey Files\Jerry Gonzalez - Crossroads (1994, Milestone) [eac-ape-scans]\CDImage.wav

Peak level 100.0 % Range quality 100.0 % CRC 1FB5A4B9 Copy OK

No errors occured

End of status report
 
CATALOG 0000000000000PERFORMER "Jerry Gonzalez & The Fort Apache Band"TITLE "Crossroads"FILE "CDImage.wav" WAVE TRACK 01 AUDIO TITLE "Malandro" PERFORMER "Jerry Gonzalez & The Fort Apache Band" INDEX 01 00:00:00 TRACK 02 AUDIO TITLE "Rumba Columbia I" PERFORMER "Jerry Gonzalez & The Fort Apache Band" INDEX 00 07:44:55 INDEX 01 07:44:70 TRACK 03 AUDIO TITLE "The Vonce" PERFORMER "Jerry Gonzalez & The Fort Apache Band" INDEX 00 08:55:30 INDEX 01 08:55:33 TRACK 04 AUDIO TITLE "Thelingus" PERFORMER "Jerry Gonzalez & The Fort Apache Band" INDEX 00 14:11:40 INDEX 01 14:12:05 TRACK 05 AUDIO TITLE "Guaguanco I" PERFORMER "Jerry Gonzalez & The Fort Apache Band" INDEX 00 21:01:08 INDEX 01 21:01:58 TRACK 06 AUDIO TITLE "Ezekiel Saw The Wheel" PERFORMER "Jerry Gonzalez & The Fort Apache Band" INDEX 00 21:39:25 INDEX 01 21:40:25 TRACK 07 AUDIO TITLE "Rumba Columbia II" PERFORMER "Jerry Gonzalez & The Fort Apache Band" INDEX 00 30:24:30 INDEX 01 30:27:00 TRACK 08 AUDIO TITLE "Viva Cepeda" PERFORMER "Jerry Gonzalez & The Fort Apache Band" INDEX 00 31:15:25 INDEX 01 31:15:50 TRACK 09 AUDIO TITLE "Lament" PERFORMER "Jerry Gonzalez & The Fort Apache Band" INDEX 00 36:16:30 INDEX 01 36:16:38 TRACK 10 AUDIO TITLE "Guaguanco II" PERFORMER "Jerry Gonzalez & The Fort Apache Band" INDEX 00 43:19:03 INDEX 01 43:19:30 TRACK 11 AUDIO TITLE "Fort Apache" PERFORMER "Jerry Gonzalez & The Fort Apache Band" INDEX 00 43:59:53 INDEX 01 44:00:38 TRACK 12 AUDIO TITLE "Elegua" PERFORMER "Jerry Gonzalez & The Fort Apache Band" INDEX 00 52:57:13 INDEX 01 52:57:60
Jerry Gonzalez (flageolet, trumpet, flugelhorn, congas);
Joe Ford (soprano saxophone, alto saxophone);
John Stubblefield (tenor saxophone);
Larry Willis (piano);
Steve Berrios (drums, percussion, bells)


Трекер:  [ 29-Янв-2012 14:58 ]

  

Скачать .torrent

Размер .torrent файла 14 KB


Размер: 356 MB
Хэш (hash) релиза: 740f2734388e2e8e27868ce4e6bfb500cbf5d237

Еще никто не оставлял запись к записи скачать торрент Jerry Gonzalez & the Fort Apache Band - Crossroads - 1994, APE . Будь первым!

!Обратная связь