Скачать через торрент музыку Jerry Gonzalez & the Fort Apache Band - Fire Dance - 1996, APE бесплатно без регистрации torrent

Если у вас наблюдаются проблемы со скриншотами, переходом по ссылками, скачиванием торрентов - проблемы в блокировщике рекламы AdBlock. #хорошегоДня!


Статистика раздачи
Размер:  397 MB   |    Зарегистрирован:  5 лет 8 месяцев   |    .torrent скачан:  18 раз   |   
Раздают:  1  
   
Загрузка...
 
Автор Сообщение

Umakiro

avatar Umakiro


Jerry Gonzalez & the Fort Apache Band - Fire Dance

Жанр: Afro-Cuban Jazz, Post-Bop, Trumpet Jazz
Страна-производитель диска: USA
Год издания диска: 1996
Издатель (лейбл): Milestone
Номер по каталогу: MCD-9258-2
Страна: USA NY
Аудиокодек: APE (*.ape)
Тип рипа: image+.cue
Битрейт аудио: lossless
Продолжительность: 01:11:37
Источник (релизер): сеть
Наличие сканов в содержимом раздачи: да
01. Isabel, The Liberator [15:36]
02. Elegua [08:14]
03. Today's Nights [10:58]
04. Verdad Amarga [11:07]
05. Let's Call This [18:52]
06. Ugly Beauty [06:50]
 
EAC extraction logfile from 17. October 2009, 23:43 for CDJerry Gonzalez And The Fort Apache Band / Fire Dance

Used drive : PLEXTOR DVDR PX-750A Adapter: 0 ID: 1Read mode : Secure with NO C2, accurate stream, disable cacheRead offset correction : 102Overread into Lead-In and Lead-Out : No

Used output format : Internal WAV Routines 44.100 Hz; 16 Bit; Stereo

Other options : Fill up missing offset samples with silence : Yes Delete leading and trailing silent blocks : No Installed external ASPI interface

Range status and errorsSelected range Filename E:\Donkey Files\Jerry Gonzaalez - Fire Dance (1996, Milestone) [eac-ape-scans]\CDImage.wav

Peak level 100.0 % Range quality 100.0 % CRC 6E73CD12 Copy OK

No errors occured

End of status report
 
PERFORMER "Jerry Gonzalez And The Fort Apache Band"TITLE "Fire Dance"FILE "CDImage.wav" WAVE TRACK 01 AUDIO TITLE "Isabel, The Liberator" PERFORMER "Jerry Gonzalez And The Fort Apache Band" INDEX 01 00:00:00 TRACK 02 AUDIO TITLE "Elegua" PERFORMER "Jerry Gonzalez And The Fort Apache Band" INDEX 01 15:36:70 TRACK 03 AUDIO TITLE "Today's Nights" PERFORMER "Jerry Gonzalez And The Fort Apache Band" INDEX 01 23:50:50 TRACK 04 AUDIO TITLE "Verdad Amarga" PERFORMER "Jerry Gonzalez And The Fort Apache Band" INDEX 01 34:48:12 TRACK 05 AUDIO TITLE "Let's Call This" PERFORMER "Jerry Gonzalez And The Fort Apache Band" INDEX 01 45:55:70 TRACK 06 AUDIO TITLE "Ugly Beauty" PERFORMER "Jerry Gonzalez And The Fort Apache Band" INDEX 01 64:47:42
Jerry González - trumpet, flugelhorn, congas;
John Stubblefield - tenor sax;
Joe Ford - alto & soprano sax;
Larry Willis - piano;
Andy González - bass;
Steve Berrios - drums, percussion


Трекер:  [ 29-Янв-2012 14:58 ]

  

Скачать .torrent

Размер .torrent файла 16 KB


Размер: 397 MB
Хэш (hash) релиза: 833382aac46340634da4d41574f4ca65a9fdc8ca

Еще никто не оставлял запись к записи скачать торрент Jerry Gonzalez & the Fort Apache Band - Fire Dance - 1996, APE . Будь первым!

!Обратная связь