Скачать через торрент музыку One For All - Blueslike - 2004, FLAC бесплатно без регистрации torrent

Если у вас наблюдаются проблемы со скриншотами, переходом по ссылками, скачиванием торрентов - проблемы в блокировщике рекламы AdBlock. #хорошегоДня!


Статистика раздачи
Размер:  350 MB   |    Зарегистрирован:  5 лет 8 месяцев   |    .torrent скачан:  19 раз   |   
Раздают:  1  
   
Загрузка...
 
Автор Сообщение

Umakiro

avatar Umakiro


One For All - Blueslike

Жанр: Post-Bop, Straight-Ahead Jazz, Neo-Bop
Страна-производитель диска: Holland
Год издания диска: 2004
Издатель (лейбл): Criss Cross Jazz
Номер по каталогу: 1256 CD
Аудиокодек: FLAC (*.flac)
Тип рипа: tracks+.cue
Битрейт аудио: lossless
Продолжительность: 00:55:28
Источник (релизер): сеть
Наличие сканов в содержимом раздачи: да
01. Five Outs To Go [06:57]
02. We'll Be Together Again [05:47]
03. Till There Was You [05:48]
04. In Between The Heartaches [05:06]
05. Blueslike [09:49]
06. Yasahiku [05:59]
07. Naima [08:03]
08. Giant Steps [07:59]
 
Exact Audio Copy V1.0 beta 1 from 15. November 2010

EAC extraction logfile from 30. December 2011, 0:51

One For All / Blueslike

Used drive : TSSTcorpCDDVDW SH-S203N Adapter: 0 ID: 2

Read mode : SecureUtilize accurate stream : YesDefeat audio cache : YesMake use of C2 pointers : No

Read offset correction : 6Overread into Lead-In and Lead-Out : NoFill up missing offset samples with silence : YesDelete leading and trailing silent blocks : NoNull samples used in CRC calculations : YesUsed interface : Installed external ASPI interfaceGap handling : Appended to previous track

Used output format : User Defined EncoderSelected bitrate : 768 kBit/sQuality : HighAdd ID3 tag : NoCommand line compressor : C:\Program Files\Exact Audio Copy-NEW\Flac\flac.exeAdditional command line options : -8 -V -T "ARTIST=%a" -T "TITLE=%t" -T "ALBUM=%g" -T "DATE=%y" -T "TRACKNUMBER=%n" -T "TOTALTRACKS=%x" -T "GENRE=%m" -T "ALBUMARTIST=%v" -T "ALBUM ARTIST=%v" -T "COMMENT=EAC V1.01b1, Secure Mode, Test & Copy, AccurateRip, FL

TOC of the extracted CD

Track | Start | Length | Start sector | End sector --------------------------------------------------------- 1 | 0:00.00 | 6:57.25 | 0 | 31299 2 | 6:57.25 | 5:47.59 | 31300 | 57383 3 | 12:45.09 | 5:48.54 | 57384 | 83537 4 | 18:33.63 | 5:06.45 | 83538 | 106532 5 | 23:40.33 | 9:49.04 | 106533 | 150711 6 | 33:29.37 | 5:59.05 | 150712 | 177641 7 | 39:28.42 | 8:03.58 | 177642 | 213924 8 | 47:32.25 | 7:59.26 | 213925 | 249875

Track 1

Filename J:\New Rips\One For All - Blueslike (2004) [FLAC]\01 - Five Outs To Go.wav

Pre-gap length 0:00:02.00

Peak level 97.9 % Extraction speed 5.1 X Track quality 100.0 % Test CRC BB8F0A18 Copy CRC BB8F0A18 Track not present in AccurateRip database Copy OK

Track 2

Filename J:\New Rips\One For All - Blueslike (2004) [FLAC]\02 - We'll Be Together Again.wav

Pre-gap length 0:00:03.58

Peak level 97.8 % Extraction speed 5.7 X Track quality 100.0 % Test CRC 8091A597 Copy CRC 8091A597 Track not present in AccurateRip database Copy OK

Track 3

Filename J:\New Rips\One For All - Blueslike (2004) [FLAC]\03 - Till There Was You.wav

Pre-gap length 0:00:03.58

Peak level 97.9 % Extraction speed 6.3 X Track quality 100.0 % Test CRC 2B47B308 Copy CRC 2B47B308 Track not present in AccurateRip database Copy OK

Track 4

Filename J:\New Rips\One For All - Blueslike (2004) [FLAC]\04 - In Between The Heartaches.wav

Pre-gap length 0:00:03.58

Peak level 97.9 % Extraction speed 6.7 X Track quality 100.0 % Test CRC 62EC4B78 Copy CRC 62EC4B78 Track not present in AccurateRip database Copy OK

Track 5

Filename J:\New Rips\One For All - Blueslike (2004) [FLAC]\05 - Blueslike.wav

Pre-gap length 0:00:03.58

Peak level 97.9 % Extraction speed 7.0 X Track quality 99.9 % Test CRC BECC274A Copy CRC BECC274A Track not present in AccurateRip database Copy OK

Track 6

Filename J:\New Rips\One For All - Blueslike (2004) [FLAC]\06 - Yasahiku.wav

Pre-gap length 0:00:03.58

Peak level 97.3 % Extraction speed 8.1 X Track quality 100.0 % Test CRC CFD5C517 Copy CRC CFD5C517 Track not present in AccurateRip database Copy OK

Track 7

Filename J:\New Rips\One For All - Blueslike (2004) [FLAC]\07 - Naima.wav

Pre-gap length 0:00:03.58

Peak level 97.9 % Extraction speed 8.7 X Track quality 100.0 % Test CRC 35333016 Copy CRC 35333016 Track not present in AccurateRip database Copy OK

Track 8

Filename J:\New Rips\One For All - Blueslike (2004) [FLAC]\08 - Giant Steps.wav

Pre-gap length 0:00:03.58

Peak level 97.9 % Extraction speed 9.3 X Track quality 100.0 % Test CRC B4E58F5F Copy CRC B4E58F5F Track not present in AccurateRip database Copy OK

None of the tracks are present in the AccurateRip database

No errors occurred

End of status report

==== Log checksum 10487295A03BEFB69785387BC6DEC232788A7E52A43D6319E0699BAE3994DAD6 ====
 
REM GENRE JazzREM DATE 2004REM DISCID 580D0308REM COMMENT "ExactAudioCopy v1.0b1"PERFORMER "One For All"TITLE "Blueslike"FILE "01 - Five Outs To Go.flac" WAVE TRACK 01 AUDIO TITLE "Five Outs To Go" PERFORMER "One For All" INDEX 01 00:00:00 TRACK 02 AUDIO TITLE "We'll Be Together Again" PERFORMER "One For All" INDEX 00 06:53:42FILE "02 - We'll Be Together Again.flac" WAVE INDEX 01 00:00:00 TRACK 03 AUDIO TITLE "Till There Was You" PERFORMER "One For All" INDEX 00 05:44:01FILE "03 - Till There Was You.flac" WAVE INDEX 01 00:00:00 TRACK 04 AUDIO TITLE "In Between The Heartaches" PERFORMER "One For All" INDEX 00 05:44:71FILE "04 - In Between The Heartaches.flac" WAVE INDEX 01 00:00:00 TRACK 05 AUDIO TITLE "Blueslike" PERFORMER "One For All" INDEX 00 05:02:62FILE "05 - Blueslike.flac" WAVE INDEX 01 00:00:00 TRACK 06 AUDIO TITLE "Yasahiku" PERFORMER "One For All" INDEX 00 09:45:21FILE "06 - Yasahiku.flac" WAVE INDEX 01 00:00:00 TRACK 07 AUDIO TITLE "Naima" PERFORMER "One For All" INDEX 00 05:55:22FILE "07 - Naima.flac" WAVE INDEX 01 00:00:00 TRACK 08 AUDIO TITLE "Giant Steps" PERFORMER "One For All" INDEX 00 08:00:00FILE "08 - Giant Steps.flac" WAVE INDEX 01 00:00:00
Eric Alexander (tenor saxophone)
Jim Rotondi (trumpet, flugelhorn)
Steve Davis (trombone)
David Hazeltine (piano)
Joe Farnsworth (drums)


Трекер:  [ 29-Янв-2012 14:58 ]

  

Скачать .torrent

Размер .torrent файла 15 KB


Размер: 350 MB
Хэш (hash) релиза: 58ef6fb92341c2159051b0161648ec7f5be1fd96

Еще никто не оставлял запись к записи скачать торрент One For All - Blueslike - 2004, FLAC . Будь первым!

!Обратная связь