Скачать через торрент музыку Lee Morgan - The Procrastinator - 1998, FLAC бесплатно без регистрации torrent

Если у вас наблюдаются проблемы со скриншотами, переходом по ссылками, скачиванием торрентов - проблемы в блокировщике рекламы AdBlock. #хорошегоДня!


Статистика раздачи
Размер:  583 MB   |    Зарегистрирован:  5 лет 8 месяцев   |    .torrent скачан:  14 раз   |   
Раздают:  1  
   
Загрузка...
 
Автор Сообщение

Umakiro

avatar Umakiro


Lee Morgan - The Procrastinator

Жанр: Hard Bop
Страна-производитель диска: Japan
Год издания диска: 1998
Издатель (лейбл): Blue Note Japan / Toshiba-EMI
Номер по каталогу: TOCJ-1629
Страна: USA Philadelphia, PA
Аудиокодек: FLAC (*.flac)
Тип рипа: tracks+.cue
Битрейт аудио: lossless
Продолжительность: 01:17:39
Источник (релизер): ruskaval
Наличие сканов в содержимом раздачи: да
01. The Procrastinator [08:08]
02. Party Time [06:04]
03. Dear Sir [06:59]
04. Stopstart [06:12]
05. Rio [06:14]
06. Soft Touch [07:08]
07. Free Flow [04:50]
08. Stormy Weather [05:44]
09. Mr. Johnson [06:11]
10. The Stroker [05:47]
11. Uncle Rough [05:35]
12. Claw-Til-Da [03:07]
13. Untited Boogaloo [05:40]
Recording information: New York, Van Gelder Studios, Englewood Cliffs, NJ (07/14/1967-10/10/1969).
 
EAC extraction logfile from 31. December 2007, 15:28 for CDLee Morgan / The Procrastinator

Used drive : _NEC DVD_RW ND-3550A Adapter: 1 ID: 0Read mode : Secure with NO C2, accurate stream, disable cacheRead offset correction : 48Overread into Lead-In and Lead-Out : No

Used output format : C:\Program Files\FLAC\flac.exe (User Defined Encoder) 128 kBit/s Additional command line options : -V -8 -T "artist=%a" -T"title=%t" -T "album=%g" -T "date=%y" -T "tracknumber=%n" -T "genre=%m" %s

Other options : Fill up missing offset samples with silence : Yes Delete leading and trailing silent blocks : No Installed external ASPI interface

Track 1 Filename C:\EAC Rip\01 - The Procrastinator.wav

Pre-gap length 0:00:02.00

Peak level 92.1 % Track quality 100.0 % Test CRC 69304D42 Copy CRC 69304D42 Copy OK

Track 2 Filename C:\EAC Rip\02 - Party Time.wav

Pre-gap length 0:00:02.02

Peak level 97.0 % Track quality 99.9 % Test CRC 0CE279E4 Copy CRC 0CE279E4 Copy OK

Track 3 Filename C:\EAC Rip\03 - Dear Sir.wav

Pre-gap length 0:00:02.00

Peak level 85.5 % Track quality 100.0 % Test CRC 201CE3CC Copy CRC 201CE3CC Copy OK

Track 4 Filename C:\EAC Rip\04 - Stopstart.wav

Pre-gap length 0:00:02.00

Peak level 93.2 % Track quality 99.9 % Test CRC 4E77593A Copy CRC 4E77593A Copy OK

Track 5 Filename C:\EAC Rip\05 - Rio.wav

Pre-gap length 0:00:01.73

Peak level 89.0 % Track quality 100.0 % Test CRC 0FED01E5 Copy CRC 0FED01E5 Copy OK

Track 6 Filename C:\EAC Rip\06 - Soft Touch.wav

Pre-gap length 0:00:02.00

Peak level 89.1 % Track quality 99.9 % Test CRC 3EC232B0 Copy CRC 3EC232B0 Copy OK

Track 7 Filename C:\EAC Rip\07 - Free Flow.wav

Pre-gap length 0:00:01.82

Peak level 97.0 % Track quality 100.0 % Test CRC 43B59E15 Copy CRC 43B59E15 Copy OK

Track 8 Filename C:\EAC Rip\08 - Stormy Weather.wav

Pre-gap length 0:00:01.80

Peak level 86.7 % Track quality 100.0 % Test CRC A63A5923 Copy CRC A63A5923 Copy OK

Track 9 Filename C:\EAC Rip\09 - Mr. Johnson.wav

Pre-gap length 0:00:01.70

Peak level 97.8 % Track quality 99.9 % Test CRC 9DADC986 Copy CRC 9DADC986 Copy OK

Track 10 Filename C:\EAC Rip\10 - The Stroker.wav

Pre-gap length 0:00:01.89

Peak level 94.3 % Track quality 100.0 % Test CRC AB7324C7 Copy CRC AB7324C7 Copy OK

Track 11 Filename C:\EAC Rip\11 - Uncle Rough.wav

Pre-gap length 0:00:01.82

Peak level 99.2 % Track quality 100.0 % Test CRC E977ACE0 Copy CRC E977ACE0 Copy OK

Track 12 Filename C:\EAC Rip\12 - Claw-Til-Da.wav

Pre-gap length 0:00:01.97

Peak level 91.8 % Track quality 100.0 % Test CRC ECD42123 Copy CRC ECD42123 Copy OK

Track 13 Filename C:\EAC Rip\13 - Untited Boogaloo.wav

Pre-gap length 0:00:01.57

Peak level 97.9 % Track quality 100.0 % Test CRC D1F95D91 Copy CRC D1F95D91 Copy OK

No errors occured

End of status report
 
REM GENRE JazzREM DATE 1995REM DISCID AC12380DREM COMMENT "ExactAudioCopy v0.95b4"PERFORMER "Lee Morgan"TITLE "The Procrastinator"FILE "01 - The Procrastinator.wav" WAVE TRACK 01 AUDIO TITLE "The Procrastinator " PERFORMER "Lee Morgan" ISRC 000000000000 INDEX 01 00:00:00 TRACK 02 AUDIO TITLE "Party Time" PERFORMER "Lee Morgan" ISRC 000000000000 INDEX 00 08:06:25FILE "02 - Party Time.wav" WAVE INDEX 01 00:00:00 TRACK 03 AUDIO TITLE "Dear Sir" PERFORMER "Lee Morgan" ISRC 000000000000 INDEX 00 06:02:45FILE "03 - Dear Sir.wav" WAVE INDEX 01 00:00:00 TRACK 04 AUDIO TITLE "Stopstart" PERFORMER "Lee Morgan" ISRC 000000000000 INDEX 00 06:57:63FILE "04 - Stopstart.wav" WAVE INDEX 01 00:00:00 TRACK 05 AUDIO TITLE "Rio" PERFORMER "Lee Morgan" ISRC 000000000000 INDEX 00 06:11:10FILE "05 - Rio.wav" WAVE INDEX 01 00:00:00 TRACK 06 AUDIO TITLE "Soft Touch" PERFORMER "Lee Morgan" ISRC 000000000000 INDEX 00 06:12:12FILE "06 - Soft Touch.wav" WAVE INDEX 01 00:00:00 TRACK 07 AUDIO TITLE "Free Flow" PERFORMER "Lee Morgan" ISRC 000000000000 INDEX 00 07:06:38FILE "07 - Free Flow.wav" WAVE INDEX 01 00:00:00 TRACK 08 AUDIO TITLE "Stormy Weather" PERFORMER "Lee Morgan" ISRC 000000000000 INDEX 00 04:48:65FILE "08 - Stormy Weather.wav" WAVE INDEX 01 00:00:00 TRACK 09 AUDIO TITLE "Mr. Johnson" PERFORMER "Lee Morgan" ISRC 000000000000 INDEX 00 05:42:25FILE "09 - Mr. Johnson.wav" WAVE INDEX 01 00:00:00 TRACK 10 AUDIO TITLE "The Stroker" PERFORMER "Lee Morgan" ISRC 000000000000 INDEX 00 06:09:50FILE "10 - The Stroker.wav" WAVE INDEX 01 00:00:00 TRACK 11 AUDIO TITLE "Uncle Rough" PERFORMER "Lee Morgan" ISRC 000000000000 INDEX 00 05:45:18FILE "11 - Uncle Rough.wav" WAVE INDEX 01 00:00:00 TRACK 12 AUDIO TITLE "Claw-Til-Da" PERFORMER "Lee Morgan" ISRC 000000000000 INDEX 00 05:33:45FILE "12 - Claw-Til-Da.wav" WAVE INDEX 01 00:00:00 TRACK 13 AUDIO TITLE "Untited Boogaloo" PERFORMER "Lee Morgan" ISRC 000000000000 INDEX 00 03:05:42FILE "13 - Untited Boogaloo.wav" WAVE INDEX 01 00:00:00
Lee Morgan (trumpet);
George Coleman, Wayne Shorter (tenor saxophone);
Julian Priester (trombone);
Herbie Hancock (piano);
Bobby Hutcherson (vibraphone);
Mickey Roker, Billy Higgins (drums)


Трекер:  [ 29-Янв-2012 14:57 ]

  

Скачать .torrent

Размер .torrent файла 13 KB


Размер: 583 MB
Хэш (hash) релиза: be657a572f4c656d3c060708ee53cbb03ae73b64

Еще никто не оставлял запись к записи скачать торрент Lee Morgan - The Procrastinator - 1998, FLAC . Будь первым!

!Обратная связь