Скачать через торрент музыку Jean Thielemans - Man Bites Harmonica! - 1992, FLAC бесплатно без регистрации torrent

Если у вас наблюдаются проблемы со скриншотами, переходом по ссылками, скачиванием торрентов - проблемы в блокировщике рекламы AdBlock. #хорошегоДня!


Статистика раздачи
Размер:  203 MB   |    Зарегистрирован:  5 лет 8 месяцев   |    .torrent скачан:  16 раз   |   
Раздают:  1  
   
Загрузка...
 
Автор Сообщение

Umakiro

avatar Umakiro


Jean "Toots" Thielemans Man Bites Harmonica!

Жанр: Bop, Mainstream Jazz
Страна-производитель диска: USA
Год издания диска: 1992
Издатель (лейбл): Riverside/OJC
Номер по каталогу: OJCCD-1738-2
Страна: Brussels, Belgium
Аудиокодек: FLAC (*.flac)
Тип рипа: tracks+.cue
Битрейт аудио: lossless
Продолжительность: 00:40:01
Источник (релизер): mishka1981
Наличие сканов в содержимом раздачи: да
01. East Of The Sun [07:18]
02. Don't Blame Me [02:30]
03. 18th Century Ballroom [03:49]
04. Soul Station [07:05]
05. Fundamental Frequency [04:57]
06. Strutting With Some Barbecue [04:34]
07. Imagination [04:31]
08. Isn't It Romantic [05:17]

Recorded in New York, New York on December 30, 1957 and January 7, 1958.
 
Exact Audio Copy V1.0 beta 1 from 15. November 2010

EAC extraction logfile from 2. January 2012, 12:57

Jean "Toots" Thielemans / Man Bites Harmonica

Used drive : TSSTcorpCDDVDW TS-L633A Adapter: 3 ID: 0

Read mode : SecureUtilize accurate stream : YesDefeat audio cache : YesMake use of C2 pointers : No

Read offset correction : 6Overread into Lead-In and Lead-Out : NoFill up missing offset samples with silence : YesDelete leading and trailing silent blocks : NoNull samples used in CRC calculations : YesUsed interface : Installed external ASPI interfaceGap handling : Appended to previous track

Used output format : User Defined EncoderSelected bitrate : 896 kBit/sQuality : HighAdd ID3 tag : NoCommand line compressor : C:\Program Files\Exact Audio Copy\FLAC\FLAC.EXEAdditional command line options : -8 -V -T "ARTIST=%a" -T "TITLE=%t" -T "ALBUM=%g" -T "DATE=%y" -T "TRACKNUMBER=%n" -T "TOTALTRACKS=%x" -T "GENRE=%m" -T "ALBUMARTIST=%v" -T "ALBUM ARTIST=%v" -T "COMMENT=EAC Secure Mode, Test & Copy, AccurateRip, FLAC -8" %s

TOC of the extracted CD

Track | Start | Length | Start sector | End sector --------------------------------------------------------- 1 | 0:00.00 | 7:18.35 | 0 | 32884 2 | 7:18.35 | 2:30.50 | 32885 | 44184 3 | 9:49.10 | 3:49.55 | 44185 | 61414 4 | 13:38.65 | 7:05.47 | 61415 | 93336 5 | 20:44.37 | 4:57.23 | 93337 | 115634 6 | 25:41.60 | 4:34.17 | 115635 | 136201 7 | 30:16.02 | 4:31.73 | 136202 | 156599 8 | 34:48.00 | 5:17.17 | 156600 | 180391

Track 1

Filename C:\MY RIPS\01 - East Of The Sun.wav

Pre-gap length 0:00:02.00

Peak level 69.3 % Extraction speed 1.2 X Track quality 100.0 % Test CRC 802BF652 Copy CRC 802BF652 Accurately ripped (confidence 2) [F19CFD7A] Copy OK

Track 2

Filename C:\MY RIPS\02 - Don't Blame Me.wav

Pre-gap length 0:00:03.08

Peak level 61.0 % Extraction speed 1.2 X Track quality 100.0 % Test CRC FB5F6600 Copy CRC FB5F6600 Accurately ripped (confidence 2) [C2D23F03] Copy OK

Track 3

Filename C:\MY RIPS\03 - 18th Century Ballroom.wav

Pre-gap length 0:00:03.13

Peak level 84.2 % Extraction speed 1.3 X Track quality 100.0 % Test CRC D9DABABA Copy CRC D9DABABA Accurately ripped (confidence 2) [EB6D9919] Copy OK

Track 4

Filename C:\MY RIPS\04 - Soul Station.wav

Pre-gap length 0:00:02.63

Peak level 81.2 % Extraction speed 1.5 X Track quality 100.0 % Test CRC 80EA6F81 Copy CRC 80EA6F81 Accurately ripped (confidence 2) [0E9DA729] Copy OK

Track 5

Filename C:\MY RIPS\05 - Fundamental Frequency.wav

Pre-gap length 0:00:02.12

Peak level 82.8 % Extraction speed 1.6 X Track quality 100.0 % Test CRC BAD6137A Copy CRC BAD6137A Accurately ripped (confidence 2) [AB0EAFBA] Copy OK

Track 6

Filename C:\MY RIPS\06 - Strutting With Some Barbecue.wav

Pre-gap length 0:00:02.65

Peak level 69.2 % Extraction speed 1.7 X Track quality 100.0 % Test CRC DB2A32E4 Copy CRC DB2A32E4 Accurately ripped (confidence 2) [1CD9C93C] Copy OK

Track 7

Filename C:\MY RIPS\07 - Imagination.wav

Pre-gap length 0:00:03.20

Peak level 53.9 % Extraction speed 1.3 X Track quality 99.9 % Test CRC 6EA76BA7 Copy CRC 6EA76BA7 Accurately ripped (confidence 2) [D6FE43C5] Copy OK

Track 8

Filename C:\MY RIPS\08 - Isn't It Romantic.wav

Pre-gap length 0:00:03.03

Peak level 81.8 % Extraction speed 1.9 X Track quality 100.0 % Test CRC 0764A5D5 Copy CRC 0764A5D5 Accurately ripped (confidence 2) [F69CAED1] Copy OK

All tracks accurately ripped

No errors occurred

End of status report

==== Log checksum D474C015B2801E20928C44209E05D1FD050FFAD7C135E1F7A0F381B01FE0C6DD ====
 
REM GENRE JazzREM DATE 1958REM DISCID 5A096508REM COMMENT "ExactAudioCopy v1.0b1"PERFORMER "Jean 'Toots' Thielemans"TITLE "Man Bites Harmonica"FILE "01 - East Of The Sun.wav" WAVE TRACK 01 AUDIO TITLE "East Of The Sun" PERFORMER "Jean 'Toots' Thielemans" INDEX 01 00:00:00 TRACK 02 AUDIO TITLE "Don't Blame Me" PERFORMER "Jean 'Toots' Thielemans" INDEX 00 07:15:27FILE "02 - Don't Blame Me.wav" WAVE INDEX 01 00:00:00 TRACK 03 AUDIO TITLE "18th Century Ballroom" PERFORMER "Jean 'Toots' Thielemans" INDEX 00 02:27:37FILE "03 - 18th Century Ballroom.wav" WAVE INDEX 01 00:00:00 TRACK 04 AUDIO TITLE "Soul Station" PERFORMER "Jean 'Toots' Thielemans" INDEX 00 03:46:67FILE "04 - Soul Station.wav" WAVE INDEX 01 00:00:00 TRACK 05 AUDIO TITLE "Fundamental Frequency" PERFORMER "Jean 'Toots' Thielemans" INDEX 00 07:03:35FILE "05 - Fundamental Frequency.wav" WAVE INDEX 01 00:00:00 TRACK 06 AUDIO TITLE "Strutting With Some Barbecue" PERFORMER "Jean 'Toots' Thielemans" INDEX 00 04:54:33FILE "06 - Strutting With Some Barbecue.wav" WAVE INDEX 01 00:00:00 TRACK 07 AUDIO TITLE "Imagination" PERFORMER "Jean 'Toots' Thielemans" INDEX 00 04:30:72FILE "07 - Imagination.wav" WAVE INDEX 01 00:00:00 TRACK 08 AUDIO TITLE "Isn't It Romantic" PERFORMER "Jean 'Toots' Thielemans" INDEX 00 04:28:70FILE "08 - Isn't It Romantic.wav" WAVE INDEX 01 00:00:00
Jean "Toots" Thielmans (harmonica, guitar)
Pepper Adams (baritone saxophone)
Kenny Drew (piano)
Wilbur Ware (bass)
Art Taylor (drums)


Трекер:  [ 29-Янв-2012 14:57 ]

  

Скачать .torrent

Размер .torrent файла 17 KB


Размер: 203 MB
Хэш (hash) релиза: dd4cca8df7e5f82202856fc4b18a029568ad7061

Еще никто не оставлял запись к записи скачать торрент Jean Thielemans - Man Bites Harmonica! - 1992, FLAC . Будь первым!

!Обратная связь