Скачать через торрент музыку Carlos Garnett - Under Nubian Skies - 1997, FLAC бесплатно без регистрации torrent

Если у вас наблюдаются проблемы со скриншотами, переходом по ссылками, скачиванием торрентов - проблемы в блокировщике рекламы AdBlock. #хорошегоДня!


Статистика раздачи
Размер:  373 MB   |    Зарегистрирован:  5 лет 8 месяцев   |    .torrent скачан:  31 раз   |   
Раздают:  1  
   
Загрузка...
 
Автор Сообщение

Umakiro

avatar Umakiro


Carlos Garnett - Under Nubian Skies

Жанр: Hard Bop, Post-Bop, Straightahead
Страна-производитель диска: USA
Год издания диска: 1997
Издатель (лейбл): High Note
Номер по каталогу: HCD 7023
Страна: Red Tank, Panama Canal Zone
Аудиокодек: FLAC (*.flac)
Тип рипа: tracks+.cue
Битрейт аудио: lossless
Продолжительность: 01:04:10
Источник (релизер): mishka1981
Наличие сканов в содержимом раздачи: да
01. Dancing Daffodils [07:41]
02. Blues for John C. [06:56]
03. My One and Only Love [08:23]
04. Happy Children Song [05:49]
05. What [06:42]
06. Under Nubian Skies [08:08]
07. Epitapher Zackerism [05:36]
08. Mango Walk [08:49]
09. Down & Up Again [06:06]
 
Exact Audio Copy V1.0 beta 1 from 15. November 2010

EAC extraction logfile from 3. January 2012, 14:54

Carlos Garnett / Under nubian skies

Used drive : TSSTcorpCDDVDW TS-L633A Adapter: 3 ID: 0

Read mode : SecureUtilize accurate stream : YesDefeat audio cache : YesMake use of C2 pointers : No

Read offset correction : 6Overread into Lead-In and Lead-Out : NoFill up missing offset samples with silence : YesDelete leading and trailing silent blocks : NoNull samples used in CRC calculations : YesUsed interface : Installed external ASPI interfaceGap handling : Appended to previous track

Used output format : User Defined EncoderSelected bitrate : 896 kBit/sQuality : HighAdd ID3 tag : NoCommand line compressor : C:\Program Files\Exact Audio Copy\FLAC\FLAC.EXEAdditional command line options : -8 -V -T "ARTIST=%a" -T "TITLE=%t" -T "ALBUM=%g" -T "DATE=%y" -T "TRACKNUMBER=%n" -T "TOTALTRACKS=%x" -T "GENRE=%m" -T "ALBUMARTIST=%v" -T "ALBUM ARTIST=%v" -T "COMMENT=EAC Secure Mode, Test & Copy, AccurateRip, FLAC -8" %s

TOC of the extracted CD

Track | Start | Length | Start sector | End sector --------------------------------------------------------- 1 | 0:00.00 | 7:41.62 | 0 | 34636 2 | 7:41.62 | 6:56.45 | 34637 | 65881 3 | 14:38.32 | 8:23.22 | 65882 | 103628 4 | 23:01.54 | 5:49.46 | 103629 | 129849 5 | 28:51.25 | 6:42.55 | 129850 | 160054 6 | 35:34.05 | 8:08.60 | 160055 | 196714 7 | 43:42.65 | 5:36.05 | 196715 | 221919 8 | 49:18.70 | 8:49.35 | 221920 | 261629 9 | 58:08.30 | 6:06.15 | 261630 | 289094

Track 1

Filename C:\MY RIPS\01 - Dancing Daffodils.wav

Pre-gap length 0:00:02.00

Peak level 76.2 % Extraction speed 1.2 X Track quality 100.0 % Test CRC A6CBDA2E Copy CRC A6CBDA2E Cannot be verified as accurate (confidence 1) [DCC626AD], AccurateRip returned [2222B604] Copy OK

Track 2

Filename C:\MY RIPS\02 - Blues for John C..wav

Peak level 68.2 % Extraction speed 1.4 X Track quality 100.0 % Test CRC A824F8C0 Copy CRC A824F8C0 Cannot be verified as accurate (confidence 1) [D29E2985], AccurateRip returned [7320D603] Copy OK

Track 3

Filename C:\MY RIPS\03 - My One and Only Love.wav

Peak level 75.8 % Extraction speed 1.6 X Track quality 100.0 % Test CRC 6E04E734 Copy CRC 6E04E734 Cannot be verified as accurate (confidence 1) [5C914844], AccurateRip returned [212CD3CF] Copy OK

Track 4

Filename C:\MY RIPS\04 - Happy Children Song.wav

Peak level 69.5 % Extraction speed 1.6 X Track quality 100.0 % Test CRC 5ED435C1 Copy CRC 5ED435C1 Cannot be verified as accurate (confidence 1) [B675B23B], AccurateRip returned [A4CA66EA] Copy OK

Track 5

Filename C:\MY RIPS\05 - What.wav

Peak level 91.4 % Extraction speed 1.8 X Track quality 100.0 % Test CRC CB644389 Copy CRC CB644389 Cannot be verified as accurate (confidence 1) [97E6ED5B], AccurateRip returned [68031875] Copy OK

Track 6

Filename C:\MY RIPS\06 - Under Nubian Skies.wav

Peak level 99.9 % Extraction speed 1.6 X Track quality 99.9 % Test CRC 9C1C8BBB Copy CRC 9C1C8BBB Cannot be verified as accurate (confidence 1) [34807B14], AccurateRip returned [06D0B705] Copy OK

Track 7

Filename C:\MY RIPS\07 - Epitapher Zackerism.wav

Peak level 77.0 % Extraction speed 1.8 X Track quality 100.0 % Test CRC 1A5C9E4A Copy CRC 1A5C9E4A Cannot be verified as accurate (confidence 1) [ADE8B370], AccurateRip returned [F396FFAC] Copy OK

Track 8

Filename C:\MY RIPS\08 - Mango Walk.wav

Peak level 80.1 % Extraction speed 2.0 X Track quality 100.0 % Test CRC BC5B44B8 Copy CRC BC5B44B8 Cannot be verified as accurate (confidence 1) [CFAC3A27], AccurateRip returned [F386095F] Copy OK

Track 9

Filename C:\MY RIPS\09 - Down & Up Again.wav

Peak level 91.9 % Extraction speed 2.1 X Track quality 100.0 % Test CRC D3FADF1B Copy CRC D3FADF1B Cannot be verified as accurate (confidence 1) [E6D828DC], AccurateRip returned [F8A847E5] Copy OK

No tracks could be verified as accurateYou may have a different pressing from the one(s) in the database

No errors occurred

End of status report

==== Log checksum 43907D19781BE552337A652F2C06ADCF9345395C0BB809C090E57E4CF2FA7B5D ====
 
REM GENRE JazzREM DATE 1997REM DISCID 770F0E09REM COMMENT "ExactAudioCopy v1.0b1"PERFORMER "Carlos Garnett"TITLE "Under nubian skies"FILE "01 - Dancing Daffodils.wav" WAVE TRACK 01 AUDIO TITLE "Dancing Daffodils" PERFORMER "Carlos Garnett" INDEX 01 00:00:00FILE "02 - Blues for John C..wav" WAVE TRACK 02 AUDIO TITLE "Blues for John C." PERFORMER "Carlos Garnett" INDEX 01 00:00:00FILE "03 - My One and Only Love.wav" WAVE TRACK 03 AUDIO TITLE "My One and Only Love" PERFORMER "Carlos Garnett" INDEX 01 00:00:00FILE "04 - Happy Children Song.wav" WAVE TRACK 04 AUDIO TITLE "Happy Children Song" PERFORMER "Carlos Garnett" INDEX 01 00:00:00FILE "05 - What.wav" WAVE TRACK 05 AUDIO TITLE "What" PERFORMER "Carlos Garnett" INDEX 01 00:00:00FILE "06 - Under Nubian Skies.wav" WAVE TRACK 06 AUDIO TITLE "Under Nubian Skies" PERFORMER "Carlos Garnett" INDEX 01 00:00:00FILE "07 - Epitapher Zackerism.wav" WAVE TRACK 07 AUDIO TITLE "Epitapher Zackerism" PERFORMER "Carlos Garnett" INDEX 01 00:00:00FILE "08 - Mango Walk.wav" WAVE TRACK 08 AUDIO TITLE "Mango Walk" PERFORMER "Carlos Garnett" INDEX 01 00:00:00FILE "09 - Down & Up Again.wav" WAVE TRACK 09 AUDIO TITLE "Down & Up Again" PERFORMER "Carlos Garnett" INDEX 01 00:00:00
Carlos Garnett (tenor saxophone)
Russell Gunn (trumpetp)
Carlton Holmes (piano)
Brad Jones (bass)
Shingo Okudaira (drums)


Трекер:  [ 29-Янв-2012 14:56 ]

  

Скачать .torrent

Размер .torrent файла 16 KB


Размер: 373 MB
Хэш (hash) релиза: a0ab28cf9724010454336f7caf0e0a282726c944

Еще никто не оставлял запись к записи скачать торрент Carlos Garnett - Under Nubian Skies - 1997, FLAC . Будь первым!

!Обратная связь