Скачать через торрент музыку Charlie Christian - Electric - 2011, FLAC бесплатно без регистрации torrent

Если у вас наблюдаются проблемы со скриншотами, переходом по ссылками, скачиванием торрентов - проблемы в блокировщике рекламы AdBlock. #хорошегоДня!


Статистика раздачи
Размер:  158 MB   |    Зарегистрирован:  5 лет 8 месяцев   |    .torrent скачан:  21 раз   |   
Раздают:  1  
   
Загрузка...
 
Автор Сообщение

Umakiro

avatar Umakiro


Charlie Christian / Electric

Жанр: Swing
Страна-производитель диска: USA
Год издания диска: 2011
Издатель (лейбл): Uptown Records
Номер по каталогу: UPCD27-63
Страна: US Dallas, TX
Аудиокодек: FLAC (*.flac)
Тип рипа: tracks+.cue
Битрейт аудио: lossless
Продолжительность: 00:56:30
Источник (релизер): arphen
Наличие сканов в содержимом раздачи: да
Треклист:
01. Tea For Two [04:54]
02. Stardust [05:44]
03. I Got Rhythm (tk 1) [03:34]
04. I Got Rhythm (tk 2) [03:33]
05. Flying Home [03:06]
06. Memories Of You [03:16]
07. AC DC Current [02:38]
08. Flyhing Home [03:11]
09. Shivers [02:53]
10. Seven Come Eleven (Roast Turkey Stomp) [02:43]
11. AC DC Current [02:29]
12. AC DC Current [02:18]
13. Dinah [03:06]
14. Gone With What Wind [03:34]
15. Sheik Of Araby [03:58]
16. Sheik Of Araby [02:49]
17. Six Appeal [02:44]

Recording Date Sep 24, 1939
 
Exact Audio Copy V1.0 beta 1 from 15. November 2010

EAC extraction logfile from 6. December 2011, 21:59

Charlie Christian / Electric

Used drive : SONY DVD RW DRU-810A Adapter: 1 ID: 5

Read mode : SecureUtilize accurate stream : YesDefeat audio cache : YesMake use of C2 pointers : No

Read offset correction : 618Overread into Lead-In and Lead-Out : NoFill up missing offset samples with silence : YesDelete leading and trailing silent blocks : NoNull samples used in CRC calculations : YesUsed interface : Installed external ASPI interfaceGap handling : Appended to previous track

Used output format : User Defined EncoderSelected bitrate : 768 kBit/sQuality : HighAdd ID3 tag : NoCommand line compressor : C:\Program Files\Exact Audio Copy-NEW\Flac\flac.exeAdditional command line options : -8 -V -T "ARTIST=%a" -T "TITLE=%t" -T "ALBUM=%g" -T "DATE=%y" -T "TRACKNUMBER=%n" -T "TOTALTRACKS=%x" -T "GENRE=%m" -T "ALBUMARTIST=%v" -T "ALBUM ARTIST=%v" -T "COMMENT=EAC V1.01b1, Secure Mode, Test & Copy, AccurateRip, FL

TOC of the extracted CD

Track | Start | Length | Start sector | End sector --------------------------------------------------------- 1 | 0:00.00 | 4:54.26 | 0 | 22075 2 | 4:54.26 | 5:44.12 | 22076 | 47887 3 | 10:38.38 | 3:34.02 | 47888 | 63939 4 | 14:12.40 | 3:33.00 | 63940 | 79914 5 | 17:45.40 | 3:06.50 | 79915 | 93914 6 | 20:52.15 | 3:16.19 | 93915 | 108633 7 | 24:08.34 | 2:38.33 | 108634 | 120516 8 | 26:46.67 | 3:11.71 | 120517 | 134912 9 | 29:58.63 | 2:53.41 | 134913 | 147928 10 | 32:52.29 | 2:43.59 | 147929 | 160212 11 | 35:36.13 | 2:29.18 | 160213 | 171405 12 | 38:05.31 | 2:18.11 | 171406 | 181766 13 | 40:23.42 | 3:06.09 | 181767 | 195725 14 | 43:29.51 | 3:34.65 | 195726 | 211840 15 | 47:04.41 | 3:58.65 | 211841 | 229755 16 | 51:03.31 | 2:49.15 | 229756 | 242445 17 | 53:52.46 | 2:44.10 | 242446 | 254755

Track 1

Filename J:\New Rips\Charlie Christian - Electric (2011) [FLAC]\01 - Tea For Two.wav

Pre-gap length 0:00:02.00

Peak level 76.6 % Extraction speed 4.7 X Track quality 100.0 % Test CRC 4BEAC22D Copy CRC 4BEAC22D Track not present in AccurateRip database Copy OK

Track 2

Filename J:\New Rips\Charlie Christian - Electric (2011) [FLAC]\02 - Stardust.wav

Peak level 68.4 % Extraction speed 5.4 X Track quality 100.0 % Test CRC 835EB7CA Copy CRC 835EB7CA Track not present in AccurateRip database Copy OK

Track 3

Filename J:\New Rips\Charlie Christian - Electric (2011) [FLAC]\03 - I Got Rhythm (tk 1).wav

Peak level 63.6 % Extraction speed 5.6 X Track quality 100.0 % Test CRC C171FF83 Copy CRC C171FF83 Track not present in AccurateRip database Copy OK

Track 4

Filename J:\New Rips\Charlie Christian - Electric (2011) [FLAC]\04 - I Got Rhythm (tk 2).wav

Peak level 65.4 % Extraction speed 5.8 X Track quality 100.0 % Test CRC F9257A07 Copy CRC F9257A07 Track not present in AccurateRip database Copy OK

Track 5

Filename J:\New Rips\Charlie Christian - Electric (2011) [FLAC]\05 - Flying Home.wav

Pre-gap length 0:00:00.41

Peak level 61.1 % Extraction speed 6.0 X Track quality 100.0 % Test CRC 5A08B8B3 Copy CRC 5A08B8B3 Track not present in AccurateRip database Copy OK

Track 6

Filename J:\New Rips\Charlie Christian - Electric (2011) [FLAC]\06 - Memories Of You.wav

Peak level 52.0 % Extraction speed 5.2 X Track quality 99.9 % Test CRC 6E86DA4B Copy CRC 6E86DA4B Track not present in AccurateRip database Copy OK

Track 7

Filename J:\New Rips\Charlie Christian - Electric (2011) [FLAC]\07 - AC DC Current.wav

Pre-gap length 0:00:00.07

Peak level 54.8 % Extraction speed 6.3 X Track quality 100.0 % Test CRC DEBE5A55 Copy CRC DEBE5A55 Track not present in AccurateRip database Copy OK

Track 8

Filename J:\New Rips\Charlie Christian - Electric (2011) [FLAC]\08 - Flyhing Home.wav

Peak level 67.8 % Extraction speed 5.5 X Track quality 99.9 % Test CRC 1B4441F3 Copy CRC 1B4441F3 Track not present in AccurateRip database Copy OK

Track 9

Filename J:\New Rips\Charlie Christian - Electric (2011) [FLAC]\09 - Shivers.wav

Pre-gap length 0:00:00.01

Peak level 55.2 % Extraction speed 6.9 X Track quality 100.0 % Test CRC 1C6867E3 Copy CRC 1C6867E3 Track not present in AccurateRip database Copy OK

Track 10

Filename J:\New Rips\Charlie Christian - Electric (2011) [FLAC]\10 - Seven Come Eleven (Roast Turkey Stomp).wav

Pre-gap length 0:00:00.36

Peak level 71.6 % Extraction speed 6.9 X Track quality 100.0 % Test CRC 0B1CB64C Copy CRC 0B1CB64C Track not present in AccurateRip database Copy OK

Track 11

Filename J:\New Rips\Charlie Christian - Electric (2011) [FLAC]\11 - AC DC Current.wav

Peak level 68.6 % Extraction speed 6.9 X Track quality 100.0 % Test CRC 548E304C Copy CRC 548E304C Track not present in AccurateRip database Copy OK

Track 12

Filename J:\New Rips\Charlie Christian - Electric (2011) [FLAC]\12 - AC DC Current.wav

Peak level 55.7 % Extraction speed 5.4 X Track quality 99.9 % Test CRC F41FF9BB Copy CRC F41FF9BB Track not present in AccurateRip database Copy OK

Track 13

Filename J:\New Rips\Charlie Christian - Electric (2011) [FLAC]\13 - Dinah.wav

Peak level 61.1 % Extraction speed 7.6 X Track quality 100.0 % Test CRC 8CACA02A Copy CRC 8CACA02A Track not present in AccurateRip database Copy OK

Track 14

Filename J:\New Rips\Charlie Christian - Electric (2011) [FLAC]\14 - Gone With What Wind.wav

Peak level 67.4 % Extraction speed 6.6 X Track quality 99.9 % Test CRC 1E1DE904 Copy CRC 1E1DE904 Track not present in AccurateRip database Copy OK

Track 15

Filename J:\New Rips\Charlie Christian - Electric (2011) [FLAC]\15 - Sheik Of Araby.wav

Peak level 68.0 % Extraction speed 8.3 X Track quality 100.0 % Test CRC 03352586 Copy CRC 03352586 Track not present in AccurateRip database Copy OK

Track 16

Filename J:\New Rips\Charlie Christian - Electric (2011) [FLAC]\16 - Sheik Of Araby.wav

Pre-gap length 0:00:00.07

Peak level 63.3 % Extraction speed 8.0 X Track quality 100.0 % Test CRC 3A038EB3 Copy CRC 3A038EB3 Track not present in AccurateRip database Copy OK

Track 17

Filename J:\New Rips\Charlie Christian - Electric (2011) [FLAC]\17 - Six Appeal.wav

Peak level 66.5 % Extraction speed 8.1 X Track quality 100.0 % Test CRC FA2CBDC7 Copy CRC FA2CBDC7 Track not present in AccurateRip database Copy OK

None of the tracks are present in the AccurateRip database

No errors occurred

End of status report

==== Log checksum 024176DDD90EDFC61D8538C8D63F4957077D2E35AF81BC4F044D4DD958AF8B72 ====
 
REM GENRE JazzREM DATE 2011REM DISCID E30D4411REM COMMENT "ExactAudioCopy v1.0b1"PERFORMER "Electric"TITLE "Charlie Christian"FILE "01 - Tea For Two.wav" WAVE TRACK 01 AUDIO TITLE "Tea For Two" PERFORMER "Electric" FLAGS DCP INDEX 01 00:00:00FILE "02 - Stardust.wav" WAVE TRACK 02 AUDIO TITLE "Stardust" PERFORMER "Electric" FLAGS DCP INDEX 01 00:00:00FILE "03 - I Got Rhythm (tk 1).wav" WAVE TRACK 03 AUDIO TITLE "I Got Rhythm (tk 1)" PERFORMER "Electric" FLAGS DCP INDEX 01 00:00:00FILE "04 - I Got Rhythm (tk 2).wav" WAVE TRACK 04 AUDIO TITLE "I Got Rhythm (tk 2)" PERFORMER "Electric" FLAGS DCP INDEX 01 00:00:00 TRACK 05 AUDIO TITLE "Flying Home" PERFORMER "Electric" FLAGS DCP INDEX 00 03:32:34FILE "05 - Flying Home.wav" WAVE INDEX 01 00:00:00FILE "06 - Memories Of You.wav" WAVE TRACK 06 AUDIO TITLE "Memories Of You" PERFORMER "Electric" FLAGS DCP INDEX 01 00:00:00 TRACK 07 AUDIO TITLE "AC DC Current" PERFORMER "Electric" FLAGS DCP INDEX 00 03:16:12FILE "07 - AC DC Current.wav" WAVE INDEX 01 00:00:00FILE "08 - Flying Home.wav" WAVE TRACK 08 AUDIO TITLE "Flyhing Home" PERFORMER "Electric" FLAGS DCP INDEX 01 00:00:00 TRACK 09 AUDIO TITLE "Shivers" PERFORMER "Electric" FLAGS DCP INDEX 00 03:11:70FILE "09 - Shivers.wav" WAVE INDEX 01 00:00:00 TRACK 10 AUDIO TITLE "Seven Come Eleven (Roast Turkey Stomp)" PERFORMER "Electric" FLAGS DCP INDEX 00 02:53:05FILE "10 - Seven Come Eleven.wav" WAVE INDEX 01 00:00:00FILE "11 - AC DC Current.wav" WAVE TRACK 11 AUDIO TITLE "AC DC Current" PERFORMER "Electric" FLAGS DCP INDEX 01 00:00:00FILE "12 - AC DC Current.wav" WAVE TRACK 12 AUDIO TITLE "AC DC Current" PERFORMER "Electric" FLAGS DCP INDEX 01 00:00:00FILE "13 - Dinah.wav" WAVE TRACK 13 AUDIO TITLE "Dinah" PERFORMER "Electric" FLAGS DCP INDEX 01 00:00:00FILE "14 - Gone With What Wind.wav" WAVE TRACK 14 AUDIO TITLE "Gone With What Wind" PERFORMER "Electric" FLAGS DCP INDEX 01 00:00:00FILE "15 - Sheik Of Araby.wav" WAVE TRACK 15 AUDIO TITLE "Sheik Of Araby" PERFORMER "Electric" FLAGS DCP INDEX 01 00:00:00 TRACK 16 AUDIO TITLE "Sheik Of Araby" PERFORMER "Electric" FLAGS DCP INDEX 00 03:58:58FILE "16 - Sheik Of Araby.wav" WAVE INDEX 01 00:00:00FILE "17 - Six Appeal.wav" WAVE TRACK 17 AUDIO TITLE "Six Appeal" PERFORMER "Electric" FLAGS DCP INDEX 01 00:00:00
Guitar Charlie Christian
Vibes Lionel Hampton
Saxophone Jerry Jerome
Piano Johnny Guarnieri
Piano Frankie Hines
Piano Fletcher Henderson
Drums Nick Fatool
Clarinet Benny Goodman
Bass Oscar Pettiford
Bass Artie Bernstein


Трекер:  [ 29-Янв-2012 14:56 ]

  

Скачать .torrent

Размер .torrent файла 15 KB


Размер: 158 MB
Хэш (hash) релиза: a492937e0a6544bde3f54e2471c0bfaddba10ddb

Еще никто не оставлял запись к записи скачать торрент Charlie Christian - Electric - 2011, FLAC . Будь первым!

!Обратная связь