Скачать через торрент музыку Glenn Horiuchi - Mercy - 1995, FLAC бесплатно без регистрации torrent

Если у вас наблюдаются проблемы со скриншотами, переходом по ссылками, скачиванием торрентов - проблемы в блокировщике рекламы AdBlock. #хорошегоДня!


Статистика раздачи
Размер:  233 MB   |    Зарегистрирован:  5 лет 8 месяцев   |    .torrent скачан:  15 раз   |   
Раздают:  1  
   
Загрузка...
 
Автор Сообщение

Umakiro

avatar Umakiro


Glenn Horiuchi / Mercy

Жанр: Avant-Garde Jazz, Free Jazz
Страна-производитель диска: USA
Год издания диска: 1995
Издатель (лейбл): Music And Arts
Номер по каталогу: 962
Страна: USA
Аудиокодек: FLAC (*.flac)
Тип рипа: tracks+.cue
Битрейт аудио: lossless
Продолжительность: 01:04:52
Источник (релизер): mishka1981
Наличие сканов в содержимом раздачи: да
Треклист:
01. Jump Start [01:17]
02. Endpoints [05:58]
03. Curl Out [04:31]
04. Earthworks [11:23]
05. Mind Probe [05:58]
06. Null Set [06:27]
07. Mercy [11:51]
08. Another Space (A) [17:27]
 
Exact Audio Copy V1.0 beta 1 from 15. November 2010

EAC extraction logfile from 4. January 2012, 13:20

Glenn Horiuchi / Mercy

Used drive : Optiarc DVD RW AD-7710H Adapter: 1 ID: 0

Read mode : SecureUtilize accurate stream : YesDefeat audio cache : YesMake use of C2 pointers : No

Read offset correction : 48Overread into Lead-In and Lead-Out : NoFill up missing offset samples with silence : YesDelete leading and trailing silent blocks : NoNull samples used in CRC calculations : YesUsed interface : Native Win32 interface for Win NT & 2000Gap handling : Appended to previous track

Used output format : User Defined EncoderSelected bitrate : 896 kBit/sQuality : HighAdd ID3 tag : NoCommand line compressor : C:\Program Files\Exact Audio Copy\FLAC\FLAC.EXEAdditional command line options : -8 -V -T "ARTIST=%a" -T "TITLE=%t" -T "ALBUM=%g" -T "DATE=%y" -T "TRACKNUMBER=%n" -T "GENRE=%m" -T "COMMENT=%e" %j--picture="%i"%j %s -o %d

TOC of the extracted CD

Track | Start | Length | Start sector | End sector --------------------------------------------------------- 1 | 0:00.00 | 1:17.20 | 0 | 5794 2 | 1:17.20 | 5:58.57 | 5795 | 32701 3 | 7:16.02 | 4:31.65 | 32702 | 53091 4 | 11:47.67 | 11:23.25 | 53092 | 104341 5 | 23:11.17 | 5:58.25 | 104342 | 131216 6 | 29:09.42 | 6:27.03 | 131217 | 160244 7 | 35:36.45 | 11:51.32 | 160245 | 213601 8 | 47:28.02 | 17:27.08 | 213602 | 292134

Track 1

Filename C:\MY RIPS\01 - Jump Start.wav

Pre-gap length 0:00:02.00

Peak level 99.3 % Extraction speed 0.9 X Track quality 100.0 % Test CRC D6934B4F Copy CRC D6934B4F Accurately ripped (confidence 2) [3D01C616] Copy OK

Track 2

Filename C:\MY RIPS\02 - Endpoints.wav

Peak level 83.5 % Extraction speed 1.4 X Track quality 100.0 % Test CRC D56B25BF Copy CRC D56B25BF Accurately ripped (confidence 2) [92AB0354] Copy OK

Track 3

Filename C:\MY RIPS\03 - Curl Out.wav

Pre-gap length 0:00:04.17

Peak level 59.9 % Extraction speed 1.5 X Track quality 100.0 % Test CRC 6635903E Copy CRC 6635903E Accurately ripped (confidence 2) [E2E9FD36] Copy OK

Track 4

Filename C:\MY RIPS\04 - Earthworks.wav

Pre-gap length 0:00:05.10

Peak level 88.3 % Extraction speed 1.9 X Track quality 100.0 % Test CRC 4AF7C07C Copy CRC 4AF7C07C Accurately ripped (confidence 2) [7D63FDDA] Copy OK

Track 5

Filename C:\MY RIPS\05 - Mind Probe.wav

Pre-gap length 0:00:03.17

Peak level 83.6 % Extraction speed 2.0 X Track quality 100.0 % Test CRC E1DADA4A Copy CRC E1DADA4A Accurately ripped (confidence 2) [A40D9F7F] Copy OK

Track 6

Filename C:\MY RIPS\06 - Null Set.wav

Pre-gap length 0:00:03.32

Peak level 94.4 % Extraction speed 2.1 X Track quality 100.0 % Test CRC 4F5CF3FF Copy CRC 4F5CF3FF Accurately ripped (confidence 2) [C7C5B055] Copy OK

Track 7

Filename C:\MY RIPS\07 - Mercy.wav

Pre-gap length 0:00:01.63

Peak level 81.1 % Extraction speed 2.4 X Track quality 100.0 % Test CRC B20AAD4D Copy CRC B20AAD4D Track not present in AccurateRip database Copy OK

Track 8

Filename C:\MY RIPS\08 - Another Space (A).wav

Pre-gap length 0:00:01.27

Peak level 100.0 % Extraction speed 2.8 X Track quality 100.0 % Test CRC A8D83445 Copy CRC A8D83445 Track not present in AccurateRip database Copy OK

6 track(s) accurately ripped 2 track(s) not present in the AccurateRip database

Some tracks could not be verified as accurate

No errors occurred

End of status report

==== Log checksum 3AFB89A351CA0CA31523EFE6E9A012643BDA9EB6BDC7D43252F2634101F6E877 ====
 
REM GENRE JazzREM DATE 1996REM DISCID 6C0F3708REM COMMENT "ExactAudioCopy v1.0b1"PERFORMER "Glenn Horiuchi"TITLE "Mercy"FILE "01 - Jump Start.wav" WAVE TRACK 01 AUDIO TITLE "Jump Start" PERFORMER "Glenn Horiuchi" INDEX 01 00:00:00FILE "02 - Endpoints.wav" WAVE TRACK 02 AUDIO TITLE "Endpoints" PERFORMER "Glenn Horiuchi" INDEX 01 00:00:00 TRACK 03 AUDIO TITLE "Curl Out" PERFORMER "Glenn Horiuchi" INDEX 00 05:54:40FILE "03 - Curl Out.wav" WAVE INDEX 01 00:00:00 TRACK 04 AUDIO TITLE "Earthworks" PERFORMER "Glenn Horiuchi" INDEX 00 04:26:55FILE "04 - Earthworks.wav" WAVE INDEX 01 00:00:00 TRACK 05 AUDIO TITLE "Mind Probe" PERFORMER "Glenn Horiuchi" INDEX 00 11:20:08FILE "05 - Mind Probe.wav" WAVE INDEX 01 00:00:00 TRACK 06 AUDIO TITLE "Null Set" PERFORMER "Glenn Horiuchi" INDEX 00 05:54:68FILE "06 - Null Set.wav" WAVE INDEX 01 00:00:00 TRACK 07 AUDIO TITLE "Mercy" PERFORMER "Glenn Horiuchi" INDEX 00 06:25:15FILE "07 - Mercy.wav" WAVE INDEX 01 00:00:00 TRACK 08 AUDIO TITLE "Another Space (A)" PERFORMER "Glenn Horiuchi" INDEX 00 11:50:05FILE "08 - Another Space (A).wav" WAVE INDEX 01 00:00:00
Joseph Jarman (alto sax)
Francis Wong (tenor sax)
Glenn Horiuchi (piano)
Robert Miranda (bass)
Jeanette Wrate (drums)


Трекер:  [ 29-Янв-2012 14:56 ]

  

Скачать .torrent

Размер .torrent файла 19 KB


Размер: 233 MB
Хэш (hash) релиза: 968fea9c7a8840a358964249b262b6f6430a96aa

Еще никто не оставлял запись к записи скачать торрент Glenn Horiuchi - Mercy - 1995, FLAC . Будь первым!

!Обратная связь