Скачать через торрент музыку The Three Sounds - Vibrations бесплатно без регистрации torrent

Если у вас наблюдаются проблемы со скриншотами, переходом по ссылками, скачиванием торрентов - проблемы в блокировщике рекламы AdBlock. #хорошегоДня!


Статистика раздачи
Размер:  233 MB   |    Зарегистрирован:  5 лет 8 месяцев   |    .torrent скачан:  19 раз   |   
Раздают:  1  
   
Загрузка...
 
Автор Сообщение

Umakiro

avatar Umakiro


The Three Sounds - Vibrations
Жанр: Hard Bop, Post-Bop
Страна-производитель диска: Japan
Год издания диска: 1997
Издатель (лейбл): Blue Note / EMI Music Japan
Номер по каталогу: BST 84248 / TOCJ8713
Аудиокодек: FLAC (*.flac)
Тип рипа: tracks+.cue
Битрейт аудио: lossless
Продолжительность: 00:37:40
Источник (релизер): arphen
Наличие сканов в содержимом раздачи: да
01. The Frown [03:33]
02. Fever [02:39]
03. Let's Go Get Stoned [03:15]
04. Something You Got [02:39]
05. Yeh Yeh [03:56]
06. It Was A Very Good Year [02:47]
07. Pavane [05:10]
08. Yours Is My Heart Alone [04:04]
09. Django [05:33]
10. Charade [04:04]
 
Exact Audio Copy V0.99 prebeta 5 from 4. May 2009

EAC extraction logfile from 21. May 2011, 12:54

The Three Sounds / Vibrations

Used drive : PLEXTOR CD-R PREMIUM2 Adapter: 4 ID: 0

Read mode : SecureUtilize accurate stream : YesDefeat audio cache : YesMake use of C2 pointers : No

Read offset correction : 30Overread into Lead-In and Lead-Out : YesFill up missing offset samples with silence : YesDelete leading and trailing silent blocks : NoNull samples used in CRC calculations : YesUsed interface : Native Win32 interface for Win NT & 2000Gap handling : Appended to previous track

Used output format : User Defined EncoderSelected bitrate : 1024 kBit/sQuality : HighAdd ID3 tag : NoCommand line compressor : C:\Program Files (x86)\Exact Audio Copy\Flac\flac.exeAdditional command line options : -8 -V -T "ARTIST=%a" -T "TITLE=%t" -T "ALBUM=%g" -T "DATE=%y" -T "TRACKNUMBER=%n" -T "TOTALTRACKS=%x" -T "GENRE=%m" -T "ALBUMARTIST=%v" -T "ALBUM ARTIST=%v" -T "COMMENT=EAC Secure Mode, Test & Copy, AccurateRip, FLAC -8" %s

TOC of the extracted CD

Track | Start | Length | Start sector | End sector --------------------------------------------------------- 1 | 0:00.00 | 3:33.45 | 0 | 16019 2 | 3:33.45 | 2:39.11 | 16020 | 27955 3 | 6:12.56 | 3:15.56 | 27956 | 42636 4 | 9:28.37 | 2:39.59 | 42637 | 54620 5 | 12:08.21 | 3:56.63 | 54621 | 72383 6 | 16:05.09 | 2:47.06 | 72384 | 84914 7 | 18:52.15 | 5:10.38 | 84915 | 108202 8 | 24:02.53 | 4:04.60 | 108203 | 126562 9 | 28:07.38 | 5:33.24 | 126563 | 151561 10 | 33:40.62 | 4:04.65 | 151562 | 169926

Track 1

Filename E:\Flac\01 - The Frown.wav

Pre-gap length 0:00:02.00

Peak level 98.8 % Track quality 100.0 % Test CRC 350251FB Copy CRC 350251FB Track not present in AccurateRip database Copy OK

Track 2

Filename E:\Flac\02 - Fever.wav

Pre-gap length 0:00:02.44

Peak level 98.8 % Track quality 100.0 % Test CRC BD60E6D0 Copy CRC BD60E6D0 Track not present in AccurateRip database Copy OK

Track 3

Filename E:\Flac\03 - Let's Go Get Stoned.wav

Pre-gap length 0:00:02.40

Peak level 98.8 % Track quality 100.0 % Test CRC F3AD5DC5 Copy CRC F3AD5DC5 Track not present in AccurateRip database Copy OK

Track 4

Filename E:\Flac\04 - Something You Got.wav

Pre-gap length 0:00:02.13

Peak level 98.8 % Track quality 100.0 % Test CRC FEFDE04A Copy CRC FEFDE04A Track not present in AccurateRip database Copy OK

Track 5

Filename E:\Flac\05 - Yeh Yeh.wav

Pre-gap length 0:00:02.24

Peak level 98.8 % Track quality 100.0 % Test CRC 3B007DF7 Copy CRC 3B007DF7 Track not present in AccurateRip database Copy OK

Track 6

Filename E:\Flac\06 - It Was A Very Good Year.wav

Pre-gap length 0:00:01.89

Peak level 98.8 % Track quality 100.0 % Test CRC 9C98D6B1 Copy CRC 9C98D6B1 Track not present in AccurateRip database Copy OK

Track 7

Filename E:\Flac\07 - Pavane.wav

Pre-gap length 0:00:02.45

Peak level 98.8 % Track quality 100.0 % Test CRC 71D332C8 Copy CRC 71D332C8 Track not present in AccurateRip database Copy OK

Track 8

Filename E:\Flac\08 - Yours Is My Heart Alone.wav

Pre-gap length 0:00:02.05

Peak level 98.8 % Track quality 100.0 % Test CRC 1EBA6052 Copy CRC 1EBA6052 Track not present in AccurateRip database Copy OK

Track 9

Filename E:\Flac\09 - Django.wav

Pre-gap length 0:00:02.16

Peak level 98.8 % Track quality 100.0 % Test CRC 40D8F734 Copy CRC 40D8F734 Track not present in AccurateRip database Copy OK

Track 10

Filename E:\Flac\10 - Charade.wav

Pre-gap length 0:00:02.45

Peak level 98.8 % Track quality 100.0 % Test CRC ACA983C5 Copy CRC ACA983C5 Track not present in AccurateRip database Copy OK

None of the tracks are present in the AccurateRip database

No errors occurred

End of status report
 
REM GENRE JazzREM DATE 2010REM DISCID 7808D90AREM COMMENT "ExactAudioCopy v0.99pb5"PERFORMER "The Three Sounds"TITLE "Vibrations"FILE "01 - The Frown.wav" WAVE TRACK 01 AUDIO TITLE "The Frown" PERFORMER "The Three Sounds" INDEX 01 00:00:00 TRACK 02 AUDIO TITLE "Fever" PERFORMER "The Three Sounds" INDEX 00 03:31:12FILE "02 - Fever.wav" WAVE INDEX 01 00:00:00 TRACK 03 AUDIO TITLE "Let's Go Get Stoned" PERFORMER "The Three Sounds" INDEX 00 02:36:56FILE "03 - Let's Go Get Stoned.wav" WAVE INDEX 01 00:00:00 TRACK 04 AUDIO TITLE "Something You Got" PERFORMER "The Three Sounds" INDEX 00 03:13:46FILE "04 - Something You Got.wav" WAVE INDEX 01 00:00:00 TRACK 05 AUDIO TITLE "Yeh Yeh" PERFORMER "The Three Sounds" INDEX 00 02:37:41FILE "05 - Yeh Yeh.wav" WAVE INDEX 01 00:00:00 TRACK 06 AUDIO TITLE "It Was A Very Good Year" PERFORMER "The Three Sounds" INDEX 00 03:54:71FILE "06 - It Was A Very Good Year.wav" WAVE INDEX 01 00:00:00 TRACK 07 AUDIO TITLE "Pavane" PERFORMER "The Three Sounds" INDEX 00 02:44:47FILE "07 - Pavane.wav" WAVE INDEX 01 00:00:00 TRACK 08 AUDIO TITLE "Yours Is My Heart Alone" PERFORMER "The Three Sounds" INDEX 00 05:08:34FILE "08 - Yours Is My Heart Alone.wav" WAVE INDEX 01 00:00:00 TRACK 09 AUDIO TITLE "Django" PERFORMER "The Three Sounds" INDEX 00 04:02:48FILE "09 - Django.wav" WAVE INDEX 01 00:00:00 TRACK 10 AUDIO TITLE "Charade" PERFORMER "The Three Sounds" INDEX 00 05:30:65FILE "10 - Charade.wav" WAVE INDEX 01 00:00:00
Piano - Gene Harris
Bass - Andy Simpkins
Drums - Kalil Madi


Трекер:  [ 29-Янв-2012 14:55 ]

  

Скачать .torrent

Размер .torrent файла 20 KB


Размер: 233 MB
Хэш (hash) релиза: 9ed571995999817e4c215d0fdd8fa2ab1c09ee1b

Еще никто не оставлял запись к записи скачать торрент The Three Sounds - Vibrations . Будь первым!

!Обратная связь