Скачать через торрент музыку Dave Brubeck Trio - The Dave Brubeck Trio with Gerry Mulligan & the Cincinnati Symphony Orchestra - 1990, FLAC бесплатно без регистрации torrent

Если у вас наблюдаются проблемы со скриншотами, переходом по ссылками, скачиванием торрентов - проблемы в блокировщике рекламы AdBlock. #хорошегоДня!


Статистика раздачи
Размер:  199 MB   |    Зарегистрирован:  5 лет 8 месяцев   |    .torrent скачан:  31 раз   |   
Раздают:  1  
   
Загрузка...
 
Автор Сообщение

Umakiro

avatar Umakiro


Dave Brubeck Trio - The Dave Brubeck Trio with Gerry Mulligan & the Cincinnati Symphony Orchestra

Жанр: Cool, West Coast Jazz
Страна-производитель диска: USA
Год издания диска: 1990
Издатель (лейбл): MCA Classics
Номер по каталогу: MCAD-42347
Страна: US Concord, CA
Аудиокодек: FLAC (*.flac)
Тип рипа: tracks+.cue
Битрейт аудио: lossless
Продолжительность: 00:35:13
Источник (релизер): arphen
Наличие сканов в содержимом раздачи: да
01. Happy Anniversary [04:53]
02. The Duke [06:49]
03. Blessed Are The Poor [04:54]
04. Forty Days [03:00]
05. Elementals [15:37

Recording information: Music Hall, Cincinnati, OH (05/1970)
 
Exact Audio Copy V1.0 beta 2 from 29. April 2011

EAC extraction logfile from 24. October 2011, 10:41

The Dave Brubeck Trio with Gerry Mulligan / Cincinnati

Used drive : E-IDE CD-ROM 50X Adapter: 2 ID: 0

Read mode : SecureUtilize accurate stream : YesDefeat audio cache : YesMake use of C2 pointers : No

Read offset correction : 682Overread into Lead-In and Lead-Out : NoFill up missing offset samples with silence : YesDelete leading and trailing silent blocks : NoNull samples used in CRC calculations : YesUsed interface : Native Win32 interface for Win NT & 2000Gap handling : Appended to previous track

Used output format : User Defined EncoderSelected bitrate : 128 kBit/sQuality : HighAdd ID3 tag : NoCommand line compressor : C:\Program Files (x86)\Exact Audio Copy\Flac\flac.exeAdditional command line options : -8 -V -T "ARTIST=%artist%" -T "TITLE=%title%" -T "ALBUM=%albumtitle%" -T "DATE=%year%" -T "TRACKNUMBER=%tracknr%" -T "TOTALTRACKS=%numtracks%" -T "GENRE=%genre%" -T "ALBUM ARTIST=%albumartist%" -T "ALBUMARTIST=%albumartist%

TOC of the extracted CD

Track | Start | Length | Start sector | End sector --------------------------------------------------------- 1 | 0:00.37 | 4:53.48 | 37 | 22059 2 | 4:54.10 | 6:49.05 | 22060 | 52739 3 | 11:43.15 | 4:54.47 | 52740 | 74836 4 | 16:37.62 | 3:00.28 | 74837 | 88364 5 | 19:38.15 | 15:37.37 | 88365 | 158676

Track 1

Filename M:\EAC rips\01 - Happy Anniversary.wav

Pre-gap length 0:00:02.37

Peak level 74.3 % Extraction speed 1.0 X Track quality 100.0 % Test CRC 75381E93 Copy CRC 75381E93 Cannot be verified as accurate (confidence 3) [635B08CF], AccurateRip returned [87B5A467] (AR v2) Copy OK

Track 2

Filename M:\EAC rips\02 - The Duke.wav

Pre-gap length 0:00:03.10

Peak level 71.0 % Extraction speed 1.1 X Track quality 100.0 % Test CRC 91AAAD1B Copy CRC 91AAAD1B Cannot be verified as accurate (confidence 3) [10348D8B], AccurateRip returned [DA283B34] (AR v2) Copy OK

Track 3

Filename M:\EAC rips\03 - Blessed Are The Poor.wav

Pre-gap length 0:00:03.08

Peak level 42.6 % Extraction speed 1.1 X Track quality 100.0 % Test CRC 96EAC9B3 Copy CRC 96EAC9B3 Cannot be verified as accurate (confidence 3) [92184572], AccurateRip returned [C3F54F20] (AR v2) Copy OK

Track 4

Filename M:\EAC rips\04 - Forty Days.wav

Pre-gap length 0:00:03.05

Peak level 85.4 % Extraction speed 1.0 X Track quality 100.0 % Test CRC E253EA4F Copy CRC E253EA4F Cannot be verified as accurate (confidence 3) [8C118817], AccurateRip returned [40B7D3E9] (AR v2) Copy OK

Track 5

Filename M:\EAC rips\05 - Elementals.wav

Pre-gap length 0:00:04.00

Peak level 89.7 % Extraction speed 1.2 X Track quality 100.0 % Test CRC 55AC55D6 Copy CRC 55AC55D6 Cannot be verified as accurate (confidence 3) [AAE46297], AccurateRip returned [5BB72BF5] (AR v2) Copy OK

No tracks could be verified as accurateYou may have a different pressing from the one(s) in the database

No errors occurred

End of status report

==== Log checksum 0A7F85373B03A79CA6A8F4F52DA03B935151E809E13DA9D799F6FB14BF33EF6A ====
 
REM GENRE JazzREM DISCID 44084305REM COMMENT "ExactAudioCopy v1.0b2"PERFORMER "The Dave Brubeck Trio with Gerry Mulligan"TITLE "Cincinnati"FILE "01 - Happy Anniversary.wav" WAVE TRACK 01 AUDIO TITLE "Happy Anniversary" PERFORMER "The Dave Brubeck Trio with Gerry Mulligan" PREGAP 00:00:37 INDEX 01 00:00:00 TRACK 02 AUDIO TITLE "The Duke" PERFORMER "The Dave Brubeck Trio with Gerry Mulligan" INDEX 00 04:50:38FILE "02 - The Duke.wav" WAVE INDEX 01 00:00:00 TRACK 03 AUDIO TITLE "Blessed Are The Poor" PERFORMER "The Dave Brubeck Trio with Gerry Mulligan" INDEX 00 06:45:72FILE "03 - Blessed Are The Poor.wav" WAVE INDEX 01 00:00:00 TRACK 04 AUDIO TITLE "Forty Days" PERFORMER "The Dave Brubeck Trio with Gerry Mulligan" INDEX 00 04:51:42FILE "04 - Forty Days.wav" WAVE INDEX 01 00:00:00 TRACK 05 AUDIO TITLE "Elementals" PERFORMER "The Dave Brubeck Trio with Gerry Mulligan" INDEX 00 02:56:28FILE "05 - Elementals.wav" WAVE INDEX 01 00:00:00
The Dave Brubeck Trio:
Dave Brubeck (piano)
Jack Six (Bass)
Alan Dawson (drums)

Gerry Mulligan (baritone saxophone)


Трекер:  [ 29-Янв-2012 14:55 ]

  

Скачать .torrent

Размер .torrent файла 17 KB


Размер: 199 MB
Хэш (hash) релиза: c18f303c787f34f2373211cc8a4c64419f857f8d

Еще никто не оставлял запись к записи скачать торрент Dave Brubeck Trio - The Dave Brubeck Trio with Gerry Mulligan & the Cincinnati Symphony Orchestra - 1990, FLAC . Будь первым!

!Обратная связь