Скачать через торрент музыку Rob Price with Ellery Eskelin, Trevor Dunn, Joey Baron - At Sunset - 2004, FLAC бесплатно без регистрации torrent

Если у вас наблюдаются проблемы со скриншотами, переходом по ссылками, скачиванием торрентов - проблемы в блокировщике рекламы AdBlock. #хорошегоДня!


Статистика раздачи
Размер:  397 MB   |    Зарегистрирован:  5 лет 8 месяцев   |    .torrent скачан:  18 раз   |   
Раздают:  1  
   
Загрузка...
 
Автор Сообщение

Umakiro

avatar Umakiro


Rob Price with Ellery Eskelin, Trevor Dunn, Joey Baron - At Sunset

Жанр: Avant-Garde Jazz
Страна-производитель диска: USA
Год издания диска: 2004
Издатель (лейбл): Gutbrain Records
Номер по каталогу: GR04
Аудиокодек: FLAC (*.flac)
Тип рипа: tracks+.cue
Битрейт аудио: lossless
Продолжительность: 00:51:23
Источник (релизер): gertot67
Наличие сканов в содержимом раздачи: да
01. 1600 Hours [05:18]
02. Night Vision [05:07]
03. Icicles [07:02]
04. Main Title [01:45]
05. Jack of Cats [04:53]
06. Where It Snows [05:53]
07. Mouse Game [05:36]
08. At Sunset [15:49]
 
Exact Audio Copy V1.0 beta 1 from 15. November 2010

EAC extraction logfile from 5. February 2011, 19:42

Rob Price / At Sunset

Used drive : Optiarc DVD RW AD-7200A Adapter: 0 ID: 0

Read mode : SecureUtilize accurate stream : YesDefeat audio cache : YesMake use of C2 pointers : No

Read offset correction : 48Overread into Lead-In and Lead-Out : NoFill up missing offset samples with silence : YesDelete leading and trailing silent blocks : NoNull samples used in CRC calculations : YesUsed interface : Installed external ASPI interfaceGap handling : Appended to previous track

Used output format : User Defined EncoderSelected bitrate : 768 kBit/sQuality : HighAdd ID3 tag : NoCommand line compressor : C:\Program Files\EAC New\Exact Audio Copy\Flac\flac.exeAdditional command line options : -8 -V -T "ARTIST=%a" -T "TITLE=%t" -T "ALBUM=%g" -T "DATE=%y" -T "TRACKNUMBER=%n" -T "TOTALTRACKS=%x" -T "GENRE=%m" -T "ALBUMARTIST=%v" -T "ALBUM ARTIST=%v" -T "COMMENT=EAC Secure Mode, Test & Copy, AccurateRip, FLAC -8" %s

TOC of the extracted CD

Track | Start | Length | Start sector | End sector --------------------------------------------------------- 1 | 0:00.00 | 5:18.25 | 0 | 23874 2 | 5:18.25 | 5:07.38 | 23875 | 46937 3 | 10:25.63 | 7:02.57 | 46938 | 78644 4 | 17:28.45 | 1:45.60 | 78645 | 86579 5 | 19:14.30 | 4:53.12 | 86580 | 108566 6 | 24:07.42 | 5:53.25 | 108567 | 135066 7 | 30:00.67 | 5:36.32 | 135067 | 160298 8 | 35:37.24 | 15:49.35 | 160299 | 231508

Track 1

Filename E:\RIP\Rob Price - At Sunset (2004) [FLAC] {Gutbrain Records GR04}\01 - 1600 Hours.wav

Pre-gap length 0:00:02.00

Peak level 98.8 % Extraction speed 2.4 X Track quality 100.0 % Test CRC 26FDA329 Copy CRC 26FDA329 Track not present in AccurateRip database Copy OK

Track 2

Filename E:\RIP\Rob Price - At Sunset (2004) [FLAC] {Gutbrain Records GR04}\02 - Night Vision.wav

Pre-gap length 0:00:01.00

Peak level 98.8 % Extraction speed 2.7 X Track quality 100.0 % Test CRC 5C2EEE1B Copy CRC 5C2EEE1B Track not present in AccurateRip database Copy OK

Track 3

Filename E:\RIP\Rob Price - At Sunset (2004) [FLAC] {Gutbrain Records GR04}\03 - Icicles.wav

Pre-gap length 0:00:00.39

Peak level 98.8 % Extraction speed 3.2 X Track quality 100.0 % Test CRC 23DDB4FE Copy CRC 23DDB4FE Track not present in AccurateRip database Copy OK

Track 4

Filename E:\RIP\Rob Price - At Sunset (2004) [FLAC] {Gutbrain Records GR04}\04 - Main Title.wav

Peak level 98.9 % Extraction speed 2.6 X Track quality 100.0 % Test CRC 5767CECC Copy CRC 5767CECC Track not present in AccurateRip database Copy OK

Track 5

Filename E:\RIP\Rob Price - At Sunset (2004) [FLAC] {Gutbrain Records GR04}\05 - Jack of Cats.wav

Pre-gap length 0:00:01.47

Peak level 98.8 % Extraction speed 3.4 X Track quality 100.0 % Test CRC 14F95739 Copy CRC 14F95739 Track not present in AccurateRip database Copy OK

Track 6

Filename E:\RIP\Rob Price - At Sunset (2004) [FLAC] {Gutbrain Records GR04}\06 - Where It Snows.wav

Peak level 98.8 % Extraction speed 3.4 X Track quality 99.9 % Test CRC D0995D6F Copy CRC D0995D6F Track not present in AccurateRip database Copy OK

Track 7

Filename E:\RIP\Rob Price - At Sunset (2004) [FLAC] {Gutbrain Records GR04}\07 - Mouse Game.wav

Peak level 98.8 % Extraction speed 4.0 X Track quality 100.0 % Test CRC 438B2050 Copy CRC 438B2050 Track not present in AccurateRip database Copy OK

Track 8

Filename E:\RIP\Rob Price - At Sunset (2004) [FLAC] {Gutbrain Records GR04}\08 - At Sunset.wav

Pre-gap length 0:00:05.04

Peak level 98.8 % Extraction speed 4.7 X Track quality 100.0 % Test CRC BF0F3FB9 Copy CRC BF0F3FB9 Track not present in AccurateRip database Copy OK

None of the tracks are present in the AccurateRip database

No errors occurred

End of status report

==== Log checksum 0EF959BE304AABA643A3EF2099939B339DEF5939BDFC3B89C7949769DA77F9BA ====
 
REM GENRE AlternativeREM DATE 2004REM DISCID 550C0E08REM COMMENT "ExactAudioCopy v1.0b1"PERFORMER "Rob Price"TITLE "At Sunset"FILE "01 - 1600 Hours.wav" WAVE TRACK 01 AUDIO TITLE "1600 Hours" PERFORMER "Rob Price" INDEX 01 00:00:00 TRACK 02 AUDIO TITLE "Night Vision" PERFORMER "Rob Price" INDEX 00 05:17:25FILE "02 - Night Vision.wav" WAVE INDEX 01 00:00:00 TRACK 03 AUDIO TITLE "Icicles" PERFORMER "Rob Price" INDEX 00 05:06:74FILE "03 - Icicles.wav" WAVE INDEX 01 00:00:00FILE "04 - Main Title.wav" WAVE TRACK 04 AUDIO TITLE "Main Title" PERFORMER "Rob Price" INDEX 01 00:00:00 TRACK 05 AUDIO TITLE "Jack of Cats" PERFORMER "Rob Price" INDEX 00 01:44:13FILE "05 - Jack of Cats.wav" WAVE INDEX 01 00:00:00FILE "06 - Where It Snows.wav" WAVE TRACK 06 AUDIO TITLE "Where It Snows" PERFORMER "Rob Price" INDEX 01 00:00:00FILE "07 - Mouse Game.wav" WAVE TRACK 07 AUDIO TITLE "Mouse Game" PERFORMER "Rob Price" INDEX 01 00:00:00 TRACK 08 AUDIO TITLE "At Sunset" PERFORMER "Rob Price" INDEX 00 05:31:28FILE "08 - At Sunset.wav" WAVE INDEX 01 00:00:00
Rob Price: Guitar
Ellery Eskelin: Tenor Saxophone
Trevor Dunn: Bass
Joey Baron: Drums


Трекер:  [ 29-Янв-2012 14:54 ]

  

Скачать .torrent

Размер .torrent файла 16 KB


Размер: 397 MB
Хэш (hash) релиза: 9a92eeeff72f76fa4a9f227580e3080ecc2c406b

Еще никто не оставлял запись к записи скачать торрент Rob Price with Ellery Eskelin, Trevor Dunn, Joey Baron - At Sunset - 2004, FLAC . Будь первым!

!Обратная связь