Скачать через торрент музыку Hank Crawford - Indigo Blue - 1991, FLAC бесплатно без регистрации torrent

Если у вас наблюдаются проблемы со скриншотами, переходом по ссылками, скачиванием торрентов - проблемы в блокировщике рекламы AdBlock. #хорошегоДня!


Статистика раздачи
Размер:  191 MB   |    Зарегистрирован:  5 лет 8 месяцев   |    .torrent скачан:  27 раз   |   
Раздают:  1  
   
Загрузка...
 
Автор Сообщение

Umakiro

avatar Umakiro


Hank Crawford / Indigo Blue

Жанр: Soul Jazz, Saxophone Jazz
Страна-производитель диска: E.U.
Год издания диска: 1991
Издатель (лейбл): Milestone
Номер по каталогу: 0025218911924
Страна: US Memphis, TN
Аудиокодек: FLAC (*.flac)
Тип рипа: tracks+.cue
Битрейт аудио: lossless
Продолжительность: 00:35:04
Источник (релизер): SapoMalo
Наличие сканов в содержимом раздачи: да
Треклист:
01. All Alone And Blue [06:28]
02. The Very Thought Of You [05:34]
03. Things Ain't What They Used To Be [05:22]
04. Funny [06:11]
05. Indigo Blue [06:34]
06. Just For A Thrill [04:55]
Recorded at JAC Studio, New York, New York on August 22 & 23, 1983
 
Exact Audio Copy V0.99 prebeta 5 from 4. May 2009

EAC extraction logfile from 13. March 2010, 11:51

Hank Crawford / Indigo Blue

Used drive : PLEXTOR CD-R PREMIUM2 Adapter: 1 ID: 1

Read mode : SecureUtilize accurate stream : YesDefeat audio cache : YesMake use of C2 pointers : No

Read offset correction : 30Overread into Lead-In and Lead-Out : YesFill up missing offset samples with silence : YesDelete leading and trailing silent blocks : NoNull samples used in CRC calculations : YesUsed interface : Installed external ASPI interfaceGap handling : Appended to previous track

Used output format : User Defined EncoderSelected bitrate : 32 kBit/sQuality : HighAdd ID3 tag : NoCommand line compressor : C:\Programmi\FLAC\flac.exeAdditional command line options : -8 -V -T "ARTIST=%a" -T "TITLE=%t" -T "ALBUM=%g" -T "DATE=%y" -T "TRACKNUMBER=%n" -T "GENRE=%m" -T "COMMENT=EAC FLAC -8" %s

TOC of the extracted CD

Track | Start | Length | Start sector | End sector --------------------------------------------------------- 1 | 0:00.00 | 6:28.15 | 0 | 29114 2 | 6:28.15 | 5:34.05 | 29115 | 54169 3 | 12:02.20 | 5:22.57 | 54170 | 78376 4 | 17:25.02 | 6:11.70 | 78377 | 106271 5 | 23:36.72 | 6:34.45 | 106272 | 135866 6 | 30:11.42 | 4:55.03 | 135867 | 157994

Track 1

Filename D:\My Rip\01 - All Alone And Blue.wav

Pre-gap length 0:00:02.00

Peak level 100.0 % Track quality 99.9 % Test CRC DE6F81AC Copy CRC DE6F81AC Track not present in AccurateRip database Copy OK

Track 2

Filename D:\My Rip\02 - The Very Thought Of You.wav

Pre-gap length 0:00:01.97

Peak level 89.4 % Track quality 99.9 % Test CRC E7CC49E4 Copy CRC E7CC49E4 Track not present in AccurateRip database Copy OK

Track 3

Filename D:\My Rip\03 - Things Ain't What They Used To Be.wav

Pre-gap length 0:00:02.50

Peak level 100.0 % Track quality 99.9 % Test CRC B81D4E45 Copy CRC B81D4E45 Track not present in AccurateRip database Copy OK

Track 4

Filename D:\My Rip\04 - Funny.wav

Peak level 100.0 % Track quality 100.0 % Test CRC 1C91295F Copy CRC 1C91295F Track not present in AccurateRip database Copy OK

Track 5

Filename D:\My Rip\05 - Indigo Blue.wav

Pre-gap length 0:00:02.46

Peak level 99.1 % Track quality 100.0 % Test CRC 096F983F Copy CRC 096F983F Track not present in AccurateRip database Copy OK

Track 6

Filename D:\My Rip\06 - Just For A Thrill.wav

Pre-gap length 0:00:03.06

Peak level 80.5 % Track quality 100.0 % Test CRC 0B33D863 Copy CRC 0B33D863 Track not present in AccurateRip database Copy OK

None of the tracks are present in the AccurateRip database

No errors occurred

End of status report
 
REM GENRE FunkREM DATE 1983REM DISCID 42083A06REM COMMENT "ExactAudioCopy v0.99pb5"PERFORMER "Hank Crawford"TITLE "Indigo Blue"FILE "01 - All Alone And Blue.flac" WAVE TRACK 01 AUDIO TITLE "All Alone And Blue" PERFORMER "Hank Crawford" INDEX 01 00:00:00 TRACK 02 AUDIO TITLE "The Very Thought Of You" PERFORMER "Hank Crawford" INDEX 00 06:26:17FILE "02 - The Very Thought Of You.flac" WAVE INDEX 01 00:00:00 TRACK 03 AUDIO TITLE "Things Ain't What They Used To Be" PERFORMER "Hank Crawford" INDEX 00 05:31:42FILE "03 - Things Ain't What They Used To Be.flac" WAVE INDEX 01 00:00:00FILE "04 - Funny.flac" WAVE TRACK 04 AUDIO TITLE "Funny" PERFORMER "Hank Crawford" INDEX 01 00:00:00 TRACK 05 AUDIO TITLE "Indigo Blue" PERFORMER "Hank Crawford" INDEX 00 06:09:35FILE "05 - Indigo Blue.flac" WAVE INDEX 01 00:00:00 TRACK 06 AUDIO TITLE "Just For A Thrill" PERFORMER "Hank Crawford" INDEX 00 06:31:40FILE "06 - Just For A Thrill.flac" WAVE INDEX 01 00:00:00
Hank Crawford (saxophone, alto saxophone, electric piano)
Melvin Sparks (guitar);
David "Fathead" Newman (tenor saxophone)
Howard Johnson (baritone saxophone, tuba)
Danny Moore, Danny Moore, Martin Banks (trumpet)
Dr. John (piano, organ)
Bernard "Pretty" Purdie (drums)


Трекер:  [ 29-Янв-2012 14:54 ]

  

Скачать .torrent

Размер .torrent файла 16 KB


Размер: 191 MB
Хэш (hash) релиза: 0663fdd1c5b393895752e36013acb28eb8ef20d6

Еще никто не оставлял запись к записи скачать торрент Hank Crawford - Indigo Blue - 1991, FLAC . Будь первым!

!Обратная связь