Скачать через торрент музыку Salvatore Tranchini, Jerry Bergonzi, Franco Ambrosetti, Mike Richmond, Antonio Farao - Radio Suite - 1996, FLAC бесплатно без регистрации torrent

Если у вас наблюдаются проблемы со скриншотами, переходом по ссылками, скачиванием торрентов - проблемы в блокировщике рекламы AdBlock. #хорошегоДня!


Статистика раздачи
Размер:  450 MB   |    Зарегистрирован:  5 лет 8 месяцев   |    .torrent скачан:  24 раза   |   
Раздают:  1  
   
Загрузка...
 
Автор Сообщение

Umakiro

avatar Umakiro


Salvatore Tranchini, Jerry Bergonzi, Franco Ambrosetti, Mike Richmond, Antonio Faraò - Radio Suite
Жанр: Hard Bop
Страна-производитель диска: Italy
Год издания диска: 1996
Издатель (лейбл): Red Records
Номер по каталогу: RR 123280-2CD
Страна: Italy
Аудиокодек: FLAC (*.flac)
Тип рипа: image+.cue
Битрейт аудио: lossless
Продолжительность: 01:14:13
Источник (релизер): lossless59
Наличие сканов в содержимом раздачи: да
01. Favola Della Morale [01:47]
02. Face It [06:15]
03. Comm' Si Fess [01:21]
04. Simultanuous Look [08:35]
05. Femmena (Radio Spot) [03:26]
06. Femmena (Quintet Version) [06:33]
07. Il Rispetto [00:32]
08. Solar Return [06:28]
09. Mare [00:50]
10. Do It To Do it [06:13]
11. Ironia Della Corte [00:51]
12. Mode For Joe [08:44]
13. Bimbi [01:23]
14. Invisible Light [06:03]
15. Your Own Witness [06:36]
16. Between Worlds [07:14]
17. Il Dubbio [01:22]
 
EAC extraction logfile from 26. February 2006, 19:36 for CDSalvatore Tranchini with Jerry Bergonzi and Franco Ambrosetti / Radio Suite

Used drive : PIONEER DVD-RW DVR-105 Adapter: 0 ID: 1Read mode : Secure with NO C2, accurate stream, disable cacheRead offset correction : 48Overread into Lead-In and Lead-Out : No

Used output format : Internal WAV Routines 44.100 Hz; 16 Bit; Stereo

Other options : Fill up missing offset samples with silence : Yes Delete leading and trailing silent blocks : No Installed external ASPI interface

Range status and errorsSelected range Filename E:\Converted Music\Salvatore Tranchini with Jerry Bergonzi and Franco Ambrosetti - Radio Suite.wav

Peak level 100.0 % Range quality 99.9 % CRC F01A1A24 Copy OK

No errors occured

End of status report
 
REM GENRE JazzREM DATE 1996REM DISCID ED116511REM COMMENT "ExactAudioCopy v0.95b3"PERFORMER "Salvatore Tranchini with Jerry Bergonzi and Franco Ambrosetti"TITLE "Radio Suite"FILE "Salvatore Tranchini with Jerry Bergonzi and Franco Ambrosetti - Radio Suite.flac" WAVE TRACK 01 AUDIO TITLE "Favola Della Morale" PERFORMER "Salvatore Tranchini with Jerry Bergonzi and Franco Ambrosetti" INDEX 01 00:00:00 TRACK 02 AUDIO TITLE "Face It" PERFORMER "Salvatore Tranchini with Jerry Bergonzi and Franco Ambrosetti" INDEX 00 01:47:54 INDEX 01 01:47:60 TRACK 03 AUDIO TITLE "Comm' Si Fess" PERFORMER "Salvatore Tranchini with Jerry Bergonzi and Franco Ambrosetti" INDEX 01 08:02:37 TRACK 04 AUDIO TITLE "Simultanuous Look" PERFORMER "Salvatore Tranchini with Jerry Bergonzi and Franco Ambrosetti" INDEX 00 09:23:55 INDEX 01 09:23:62 TRACK 05 AUDIO TITLE "Femmena (Radio Spot)" PERFORMER "Salvatore Tranchini with Jerry Bergonzi and Franco Ambrosetti" INDEX 01 17:58:70 TRACK 06 AUDIO TITLE "Femmena (Quintet Version)" PERFORMER "Salvatore Tranchini with Jerry Bergonzi and Franco Ambrosetti" INDEX 00 21:24:32 INDEX 01 21:24:47 TRACK 07 AUDIO TITLE "Il Rispetto" PERFORMER "Salvatore Tranchini with Jerry Bergonzi and Franco Ambrosetti" INDEX 00 27:57:26 INDEX 01 27:57:40 TRACK 08 AUDIO TITLE "Solar Return" PERFORMER "Salvatore Tranchini with Jerry Bergonzi and Franco Ambrosetti" INDEX 01 28:29:37 TRACK 09 AUDIO TITLE "Mare" PERFORMER "Salvatore Tranchini with Jerry Bergonzi and Franco Ambrosetti" INDEX 00 34:57:65 INDEX 01 34:58:05 TRACK 10 AUDIO TITLE "Do It To Do it" PERFORMER "Salvatore Tranchini with Jerry Bergonzi and Franco Ambrosetti" INDEX 01 35:47:25 TRACK 11 AUDIO TITLE "Ironia Della Corte" PERFORMER "Salvatore Tranchini with Jerry Bergonzi and Franco Ambrosetti" INDEX 01 42:00:57 TRACK 12 AUDIO TITLE "Mode For Joe" PERFORMER "Salvatore Tranchini with Jerry Bergonzi and Franco Ambrosetti" INDEX 01 42:51:17 TRACK 13 AUDIO TITLE "Bimbi" PERFORMER "Salvatore Tranchini with Jerry Bergonzi and Franco Ambrosetti" INDEX 01 51:35:52 TRACK 14 AUDIO TITLE "Invisible Light" PERFORMER "Salvatore Tranchini with Jerry Bergonzi and Franco Ambrosetti" INDEX 01 52:58:10 TRACK 15 AUDIO TITLE "Your Own Witness" PERFORMER "Salvatore Tranchini with Jerry Bergonzi and Franco Ambrosetti" INDEX 01 59:01:12 TRACK 16 AUDIO TITLE "Between Worlds" PERFORMER "Salvatore Tranchini with Jerry Bergonzi and Franco Ambrosetti" INDEX 00 65:37:51 INDEX 01 65:37:65 TRACK 17 AUDIO TITLE "Il Dubbio" PERFORMER "Salvatore Tranchini with Jerry Bergonzi and Franco Ambrosetti" INDEX 00 72:51:28 INDEX 01 72:51:30
JERRY BERGONZI - SAX TENORE
FRANCO AMBROSETTI - FLUGHELHORN, TRUMPET
ANTONIO FARAO' - PIANO
MIKE RICHMOND - BASS
SALVATORE TRANCHINI - DRUMS


Трекер:  [ 29-Янв-2012 14:54 ]

  

Скачать .torrent

Размер .torrent файла 18 KB


Размер: 450 MB
Хэш (hash) релиза: 79c79d0009d8d590ae80840b689b7af79228706a

Еще никто не оставлял запись к записи скачать торрент Salvatore Tranchini, Jerry Bergonzi, Franco Ambrosetti, Mike Richmond, Antonio Farao - Radio Suite - 1996, FLAC . Будь первым!

!Обратная связь