Скачать через торрент музыку Third World Love - Avanim - 2004, FLAC бесплатно без регистрации torrent

Если у вас наблюдаются проблемы со скриншотами, переходом по ссылками, скачиванием торрентов - проблемы в блокировщике рекламы AdBlock. #хорошегоДня!


Статистика раздачи
Размер:  370 MB   |    Зарегистрирован:  5 лет 8 месяцев   |    .torrent скачан:  26 раз   |   
Раздают:  1  
   
Загрузка...
 
Автор Сообщение

Umakiro

avatar Umakiro


Third World Love - Avanim

Жанр: Neo-Bop, Contemporary Jazz, Progressive Jazz, Fusion
Год издания диска: 2004
Издатель (лейбл): NMC Music
Номер по каталогу: 330263-2
Аудиокодек: FLAC (*.flac)
Тип рипа: tracks+.cue
Битрейт аудио: lossless
Продолжительность: 01:06:37
Источник (релизер): Zoeb
Наличие сканов в содержимом раздачи: да
01. La Suite Africain [09:34]
02. Ein Karem [06:47]
03. Judith [09:05]
04. Avanim [07:18]
05. Clouds [06:54]
06. Forest [11:00]
07. Leaves [06:11]
08. Marrakesh [09:48]
 
Exact Audio Copy V1.0 beta 3 from 29. August 2011

EAC extraction logfile from 31. October 2011, 19:57

Third World Love / Avanim

Used drive : PLEXTOR CD-R PREMIUM2 Adapter: 4 ID: 0

Read mode : SecureUtilize accurate stream : YesDefeat audio cache : YesMake use of C2 pointers : No

Read offset correction : 30Overread into Lead-In and Lead-Out : NoFill up missing offset samples with silence : YesDelete leading and trailing silent blocks : NoNull samples used in CRC calculations : YesUsed interface : Native Win32 interface for Win NT & 2000Gap handling : Appended to previous track

Used output format : User Defined EncoderSelected bitrate : 128 kBit/sQuality : HighAdd ID3 tag : NoCommand line compressor : C:\Program Files\Exact Audio Copy\Flac\flac.exeAdditional command line options : -8 -V -T "ARTIST=%artist%" -T "TITLE=%title%" -T "ALBUM=%albumtitle%" -T "DATE=%year%" -T "TRACKNUMBER=%tracknr%" -T "TOTALTRACKS=%numtracks%" -T "GENRE=%genre%" -T "ALBUMARTIST=%albumartist%" -T "ALBUM ARTIST=%albumartist%" -T "COMMENT=EAC Secure Mode, Test & Copy, AccurateRip, FLAC -8" %source%

TOC of the extracted CD

Track | Start | Length | Start sector | End sector --------------------------------------------------------- 1 | 0:00.00 | 9:34.48 | 0 | 43097 2 | 9:34.48 | 6:47.49 | 43098 | 73671 3 | 16:22.22 | 9:05.71 | 73672 | 114617 4 | 25:28.18 | 7:18.71 | 114618 | 147538 5 | 32:47.14 | 6:54.61 | 147539 | 178649 6 | 39:42.00 | 11:00.53 | 178650 | 228202 7 | 50:42.53 | 6:11.22 | 228203 | 256049 8 | 56:54.00 | 9:48.35 | 256050 | 300184

Track 1

Filename F:\EAC WAV\01 - La Suite Africain.wav

Pre-gap length 0:00:02.00

Peak level 100.0 % Extraction speed 9.2 X Track quality 100.0 % Test CRC 80046465 Copy CRC 80046465 Accurately ripped (confidence 2) [3E8E276D] (AR v1) Copy OK

Track 2

Filename F:\EAC WAV\02 - Ein Karem.wav

Peak level 100.0 % Extraction speed 9.9 X Track quality 99.9 % Test CRC 07C37F06 Copy CRC 07C37F06 Accurately ripped (confidence 2) [015CE824] (AR v1) Copy OK

Track 3

Filename F:\EAC WAV\03 - Judith.wav

Peak level 100.0 % Extraction speed 12.3 X Track quality 100.0 % Test CRC 69A25B53 Copy CRC 69A25B53 Accurately ripped (confidence 2) [BCE1A128] (AR v1) Copy OK

Track 4

Filename F:\EAC WAV\04 - Avanim.wav

Peak level 99.6 % Extraction speed 13.4 X Track quality 100.0 % Test CRC 49D173F0 Copy CRC 49D173F0 Accurately ripped (confidence 2) [03E1D0BD] (AR v1) Copy OK

Track 5

Filename F:\EAC WAV\05 - Clouds.wav

Peak level 72.8 % Extraction speed 14.4 X Track quality 100.0 % Test CRC 9449CD60 Copy CRC 9449CD60 Accurately ripped (confidence 2) [E510D8FB] (AR v1) Copy OK

Track 6

Filename F:\EAC WAV\06 - Forest.wav

Peak level 99.8 % Extraction speed 15.5 X Track quality 100.0 % Test CRC 42874227 Copy CRC 42874227 Accurately ripped (confidence 2) [F2093313] (AR v1) Copy OK

Track 7

Filename F:\EAC WAV\07 - Leaves.wav

Peak level 99.3 % Extraction speed 16.0 X Track quality 100.0 % Test CRC 20E96FFD Copy CRC 20E96FFD Accurately ripped (confidence 2) [E580F777] (AR v1) Copy OK

Track 8

Filename F:\EAC WAV\08 - Marrakesh.wav

Peak level 99.9 % Extraction speed 15.1 X Track quality 100.0 % Test CRC 56D53074 Copy CRC 56D53074 Accurately ripped (confidence 2) [10AB8070] (AR v1) Copy OK

All tracks accurately ripped

No errors occurred

End of status report

==== Log checksum 76A9C8133EE6ED7E02ED5F1688B84BEF65C375D7A0648402FCC2CA4E509887A4 ====
 
REM GENRE JazzREM DATE 2004REM DISCID 750FA208REM COMMENT "ExactAudioCopy v1.0b3"PERFORMER "Third World Love"TITLE "Avanim"FILE "01 - La Suite Africain.wav" WAVE TRACK 01 AUDIO TITLE "La Suite Africain" PERFORMER "Third World Love" FLAGS DCP INDEX 01 00:00:00FILE "02 - Ein Karem.wav" WAVE TRACK 02 AUDIO TITLE "Ein Karem" PERFORMER "Third World Love" FLAGS DCP INDEX 01 00:00:00FILE "03 - Judith.wav" WAVE TRACK 03 AUDIO TITLE "Judith" PERFORMER "Third World Love" FLAGS DCP INDEX 01 00:00:00FILE "04 - Avanim.wav" WAVE TRACK 04 AUDIO TITLE "Avanim" PERFORMER "Third World Love" FLAGS DCP INDEX 01 00:00:00FILE "05 - Clouds.wav" WAVE TRACK 05 AUDIO TITLE "Clouds" PERFORMER "Third World Love" FLAGS DCP INDEX 01 00:00:00FILE "06 - Forest.wav" WAVE TRACK 06 AUDIO TITLE "Forest" PERFORMER "Third World Love" FLAGS DCP INDEX 01 00:00:00FILE "07 - Leaves.wav" WAVE TRACK 07 AUDIO TITLE "Leaves" PERFORMER "Third World Love" FLAGS DCP INDEX 01 00:00:00FILE "08 - Marrakesh.wav" WAVE TRACK 08 AUDIO TITLE "Marrakesh" PERFORMER "Third World Love" FLAGS DCP INDEX 01 00:00:00
AVISHAI COHEN (trumpet)
YONATAN AVISHAI (piano)
OMER AVITAL (bass)
DANIEL FREEDMAN (drums)


Трекер:  [ 29-Янв-2012 14:54 ]

  

Скачать .torrent

Размер .torrent файла 16 KB


Размер: 370 MB
Хэш (hash) релиза: e791edc7199f11e532628de2c46d68f52c6d7584

Еще никто не оставлял запись к записи скачать торрент Third World Love - Avanim - 2004, FLAC . Будь первым!

!Обратная связь