Скачать через торрент музыку Anthony Coleman Trio - Sephardic Tinge - 1995, FLAC бесплатно без регистрации torrent

Если у вас наблюдаются проблемы со скриншотами, переходом по ссылками, скачиванием торрентов - проблемы в блокировщике рекламы AdBlock. #хорошегоДня!


Статистика раздачи
Размер:  279 MB   |    Зарегистрирован:  5 лет 8 месяцев   |    .torrent скачан:  28 раз   |   
Раздают:  1  
   
Загрузка...
 
Автор Сообщение

Umakiro

avatar Umakiro


Anthony Coleman Trio - Sephardic Tinge

Жанр: Avant-Garde Jazz, Jewish Music, Modern Creative, Post-Bop
Страна-производитель диска: USA
Год издания диска: 1995
Издатель (лейбл): Tzadik
Номер по каталогу: TZ-7102
Страна: USA
Аудиокодек: FLAC (*.flac)
Тип рипа: tracks+.cue
Битрейт аудио: lossless
Продолжительность: 00:48:49
Источник (релизер): Nefertiti
Наличие сканов в содержимом раздачи: да
01. Quando El Rey Nimrod [04:04]
02. Bye-Ya [05:14]
03. Ladino Passacaglia [05:10]
04. Belz [4:56]
05. Bert Williams [04:08]
06. Sarajevo [04:20]
07. Doina [08:08]
08. Ask Anthony 2 [06:18]
09. Una Matica De Ruda [06:31]
 
EAC extraction logfile from 21. August 2007, 10:22 for CDAnthony Coleman Trio / Sephardic Tinge

Used drive : PLEXTOR CD-R PREMIUM2 Adapter: 0 ID: 1Read mode : Secure with NO C2, accurate stream, disable cacheRead offset correction : 30Overread into Lead-In and Lead-Out : Yes

Used output format : C:\Programme\FLAC\flac.exe (User Defined Encoder) 128 kBit/s Additional command line options : -5 -V -T "artist=%a" -T "title=%t" -T "album=%g" -T "date=%y" -T "tracknumber=%n" -T "genre=%m" -T "comment=Exact Audio Copy 0.95b4, Flac 1.2.0.a -5" %s

Other options : Fill up missing offset samples with silence : Yes Delete leading and trailing silent blocks : No Installed external ASPI interface

Track 1 Filename C:\Anthony Coleman Trio - Sephardic Tinge (1995) [FLAC] (Tzadik 7102)\01 - Quando El Rey Nimrod.wav

Pre-gap length 0:00:02.16

Peak level 87.1 % Track quality 100.0 % Test CRC E026741E Copy CRC E026741E Copy OK

Track 2 Filename C:\Anthony Coleman Trio - Sephardic Tinge (1995) [FLAC] (Tzadik 7102)\02 - Bye-Ya.wav

Pre-gap length 0:00:01.56

Peak level 89.3 % Track quality 100.0 % Test CRC A3CFDDC2 Copy CRC A3CFDDC2 Copy OK

Track 3 Filename C:\Anthony Coleman Trio - Sephardic Tinge (1995) [FLAC] (Tzadik 7102)\03 - Ladino Passacaglia.wav

Pre-gap length 0:00:03.73

Peak level 99.4 % Track quality 100.0 % Test CRC 67CD31B7 Copy CRC 67CD31B7 Copy OK

Track 4 Filename C:\Anthony Coleman Trio - Sephardic Tinge (1995) [FLAC] (Tzadik 7102)\04 - Belz.wav

Pre-gap length 0:00:04.36

Peak level 89.6 % Track quality 100.0 % Test CRC B5701DDA Copy CRC B5701DDA Copy OK

Track 5 Filename C:\Anthony Coleman Trio - Sephardic Tinge (1995) [FLAC] (Tzadik 7102)\05 - Bert Williams.wav

Pre-gap length 0:00:02.06

Peak level 74.6 % Track quality 99.9 % Test CRC 3829996A Copy CRC 3829996A Copy OK

Track 6 Filename C:\Anthony Coleman Trio - Sephardic Tinge (1995) [FLAC] (Tzadik 7102)\06 - Sarajevo.wav

Pre-gap length 0:00:04.05

Peak level 86.2 % Track quality 100.0 % Test CRC 8EF198AE Copy CRC 8EF198AE Copy OK

Track 7 Filename C:\Anthony Coleman Trio - Sephardic Tinge (1995) [FLAC] (Tzadik 7102)\07 - Doina.wav

Pre-gap length 0:00:03.40

Peak level 96.3 % Track quality 100.0 % Test CRC 3F44FC65 Copy CRC 3F44FC65 Copy OK

Track 8 Filename C:\Anthony Coleman Trio - Sephardic Tinge (1995) [FLAC] (Tzadik 7102)\08 - Ask Anthony 2.wav

Pre-gap length 0:00:03.42

Peak level 96.6 % Track quality 99.9 % Test CRC 75076462 Copy CRC 75076462 Copy OK

Track 9 Filename C:\Anthony Coleman Trio - Sephardic Tinge (1995) [FLAC] (Tzadik 7102)\09 - Una Matica De Ruda.wav

Pre-gap length 0:00:04.09

Peak level 97.0 % Track quality 100.0 % Test CRC 5A9F0012 Copy CRC 5A9F0012 Copy OK

No errors occured

End of status report
 
REM GENRE JazzREM DATE 1995REM DISCID 790B7609REM COMMENT "ExactAudioCopy v0.95b4"PERFORMER "Anthony Coleman Trio"TITLE "Sephardic Tinge"FILE "01 - Quando El Rey Nimrod.flac" WAVE TRACK 01 AUDIO TITLE "Quando El Rey Nimrod" PERFORMER "Anthony Coleman Trio" PREGAP 00:00:12 INDEX 01 00:00:00 TRACK 02 AUDIO TITLE "Bye-Ya" PERFORMER "Anthony Coleman Trio" INDEX 00 04:03:06FILE "02 - Bye-Ya.flac" WAVE INDEX 01 00:00:00 TRACK 03 AUDIO TITLE "Ladino Passacaglia" PERFORMER "Anthony Coleman Trio" INDEX 00 05:11:00FILE "03 - Ladino Passacaglia.flac" WAVE INDEX 01 00:00:00 TRACK 04 AUDIO TITLE "Belz" PERFORMER "Anthony Coleman Trio" INDEX 00 05:06:28FILE "04 - Belz.flac" WAVE INDEX 01 00:00:00 TRACK 05 AUDIO TITLE "Bert Williams" PERFORMER "Anthony Coleman Trio" INDEX 00 04:54:15FILE "05 - Bert Williams.flac" WAVE INDEX 01 00:00:00 TRACK 06 AUDIO TITLE "Sarajevo" PERFORMER "Anthony Coleman Trio" INDEX 00 04:03:73FILE "06 - Sarajevo.flac" WAVE INDEX 01 00:00:00 TRACK 07 AUDIO TITLE "Doina" PERFORMER "Anthony Coleman Trio" INDEX 00 04:17:13FILE "07 - Doina.flac" WAVE INDEX 01 00:00:00 TRACK 08 AUDIO TITLE "Ask Anthony 2" PERFORMER "Anthony Coleman Trio" INDEX 00 08:05:20FILE "08 - Ask Anthony 2.flac" WAVE INDEX 01 00:00:00 TRACK 09 AUDIO TITLE "Una Matica De Ruda" PERFORMER "Anthony Coleman Trio" INDEX 00 06:14:58FILE "09 - Una Matica De Ruda.flac" WAVE INDEX 01 00:00:00
Anthony Coleman Trio:
Anthony Coleman: piano
Greg Cohen: bass
Joey Baron: drums


Трекер:  [ 29-Янв-2012 14:53 ]

  

Скачать .torrent

Размер .torrent файла 12 KB


Размер: 279 MB
Хэш (hash) релиза: b37f6c1e56a8107f88fe203299817a9d9b5e330f

Еще никто не оставлял запись к записи скачать торрент Anthony Coleman Trio - Sephardic Tinge - 1995, FLAC . Будь первым!

!Обратная связь