Скачать через торрент музыку Steve Turre with James Carter, Dewey Redman, David Sanchez - TNT бесплатно без регистрации torrent

Если у вас наблюдаются проблемы со скриншотами, переходом по ссылками, скачиванием торрентов - проблемы в блокировщике рекламы AdBlock. #хорошегоДня!


Статистика раздачи
Размер:  437 MB   |    Зарегистрирован:  5 лет 8 месяцев   |    .torrent скачан:  31 раз   |   
Раздают:  1  
   
Загрузка...
 
Автор Сообщение

Umakiro

avatar Umakiro


Steve Turre with James Carter, Dewey Redman, David Sanchez / TNT (Trombone-N-Tenor)

Жанр: Post-Bop, Trombone
Страна-производитель диска: USA
Год издания диска: 2001
Издатель (лейбл): Telarc Distribution
Номер по каталогу: CD-83529
Страна: US Omaha, NE
Аудиокодек: FLAC (*.flac)
Тип рипа: image+.cue
Битрейт аудио: lossless
Продолжительность: 00:59:28
Источник (релизер): obelix
Наличие сканов в содержимом раздачи: да
01. Back In The Day [06:39]
02. Puente Of Soul [06:10]
03. Stompin' At The Savoy [08:12]
04. The Nearness Of You [08:18]
05. Hallelujah, I Love Her So [04:59]
06. Eric The Great [08:55]
07. E.J. [05:11]
08. Dewey's Dance [11:04]
 
Exact Audio Copy V0.99 prebeta 4 from 23. January 2008

EAC extraction logfile from 2. April 2008, 12:26

Steve Turre / TNT

Used drive : PLEXTOR CD-R PREMIUM Adapter: 1 ID: 0

Read mode : SecureUtilize accurate stream : YesDefeat audio cache : YesMake use of C2 pointers : No

Read offset correction : 30Overread into Lead-In and Lead-Out : NoFill up missing offset samples with silence : YesDelete leading and trailing silent blocks : NoNull samples used in CRC calculations : NoUsed interface : Native Win32 interface for Win NT & 2000

Used output format : Internal WAV RoutinesSample format : 44.100 Hz; 16 Bit; Stereo

TOC of the extracted CD

Track | Start | Length | Start sector | End sector --------------------------------------------------------- 1 | 0:00.00 | 6:39.25 | 0 | 29949 2 | 6:39.25 | 6:09.55 | 29950 | 57679 3 | 12:49.05 | 8:12.12 | 57680 | 94591 4 | 21:01.17 | 8:17.58 | 94592 | 131924 5 | 29:19.00 | 4:59.42 | 131925 | 154391 6 | 34:18.42 | 8:55.15 | 154392 | 194531 7 | 43:13.57 | 5:11.15 | 194532 | 217871 8 | 48:24.72 | 11:03.58 | 217872 | 267654

Range status and errors

Selected range

Filename C:\Converted Music\Steve Turre - TNT.wav

Peak level 92.2 % Range quality 100.0 % Copy CRC 799FEE43 Copy OK

No errors occurred

End of status report
 
REM GENRE JazzREM DATE 2001REM DISCID 5F0DF008REM COMMENT "ExactAudioCopy v0.99pb4"PERFORMER "Steve Turre"TITLE "TNT"FILE "Steve Turre - TNT.wav" WAVE TRACK 01 AUDIO TITLE "Back In The Day" PERFORMER "Steve Turre" INDEX 01 00:00:00 TRACK 02 AUDIO TITLE "Puente Of Soul" PERFORMER "Steve Turre" INDEX 01 06:39:25 TRACK 03 AUDIO TITLE "Stompin' At The Savoy" PERFORMER "Steve Turre" INDEX 01 12:49:05 TRACK 04 AUDIO TITLE "The Nearness Of You" PERFORMER "Steve Turre" INDEX 01 21:01:17 TRACK 05 AUDIO TITLE "Hallelujah, I Love Her So" PERFORMER "Steve Turre" INDEX 01 29:19:00 TRACK 06 AUDIO TITLE "Eric The Great" PERFORMER "Steve Turre" INDEX 01 34:18:42 TRACK 07 AUDIO TITLE "E.J." PERFORMER "Steve Turre" INDEX 01 43:13:57 TRACK 08 AUDIO TITLE "Dewey's Dance" PERFORMER "Steve Turre" INDEX 01 48:24:72
Mulgrew Miller - Piano
Steve Turre - Trombone, Claves, Producer, Main Performer
Peter Washington - Bass
Buster Williams - Bass
Giovanni Hidalgo - Conga, Campana, Timbales
Victor Lewis - Drums
Lewis Nash - Drums
Dewey Redman - Sax (Tenor)


Трекер:  [ 29-Янв-2012 14:53 ]

  

Скачать .torrent

Размер .torrent файла 18 KB


Размер: 437 MB
Хэш (hash) релиза: ef915ca009db5edbb88edd8272912fd5b670c8f7

Еще никто не оставлял запись к записи скачать торрент Steve Turre with James Carter, Dewey Redman, David Sanchez - TNT . Будь первым!

!Обратная связь