Скачать через торрент музыку Jon Balke & Batagraf - Say and Play - 2011, FLAC бесплатно без регистрации torrent

Если у вас наблюдаются проблемы со скриншотами, переходом по ссылками, скачиванием торрентов - проблемы в блокировщике рекламы AdBlock. #хорошегоДня!


Статистика раздачи
Размер:  311 MB   |    Зарегистрирован:  5 лет 8 месяцев   |    .torrent скачан:  34 раза   |   
Раздают:  1  
   
Загрузка...
 
Автор Сообщение

Umakiro

avatar Umakiro


Jon Balke & Batagraf - Say and Play

Жанр: contemporary jazz, world fusion
Страна-производитель диска: Germany
Год издания диска: 2011
Издатель (лейбл): ECM
Номер по каталогу: 2245
Страна: Furnes, Norway
Аудиокодек: FLAC (*.flac)
Тип рипа: tracks+.cue
Битрейт аудио: lossless
Продолжительность: 00:47:03
Источник (релизер): cеть
Наличие сканов в содержимом раздачи: да
01. Baka #65 [01:53]
02. Everyday Music [03:37]
03. Riddle #1 [04:42]
04. Calmly [00:53]
05. Vjup [05:01]
06. Tonk [05:01]
07. The Wind Calmer [04:34]
08. Riddle #2 [03:34]
09. Azulito [05:07]
10. Hundred-Handed [04:51]
11. One Change [02:56]
12. Winds [03:24]
13. GMBH [00:47]
 
Exact Audio Copy V1.0 beta 2 from 29. April 2011

EAC extraction logfile from 25. November 2011, 21:01

Jon Balke and Batagraf / Say and Play

Used drive : PLEXTOR DVDR PX-L890SA Adapter: 2 ID: 1

Read mode : SecureUtilize accurate stream : YesDefeat audio cache : YesMake use of C2 pointers : No

Read offset correction : 6Overread into Lead-In and Lead-Out : NoFill up missing offset samples with silence : YesDelete leading and trailing silent blocks : NoNull samples used in CRC calculations : YesUsed interface : Native Win32 interface for Win NT & 2000Gap handling : Appended to previous track

Used output format : User Defined EncoderSelected bitrate : 256 kBit/sQuality : HighAdd ID3 tag : NoCommand line compressor : C:\Program Files (x86)\Exact Audio Copy\FLAC\FLAC.EXEAdditional command line options : -8 -V -T "ARTIST=%artist%" -T "TITLE=%title%" -T "ALBUM=%albumtitle%" -T "DATE=%year%" -T "TRACKNUMBER=%tracknr%" -T "TOTALTRACKS=%numtracks%" -T "GENRE=%genre%" -T "ALBUMARTIST=%albumartist%" -T "ALBUM ARTIST=%albumartist%

TOC of the extracted CD

Track | Start | Length | Start sector | End sector --------------------------------------------------------- 1 | 0:00.00 | 1:53.72 | 0 | 8546 2 | 1:53.72 | 5:37.17 | 8547 | 33838 3 | 7:31.14 | 3:37.30 | 33839 | 50143 4 | 11:08.44 | 4:42.69 | 50144 | 71362 5 | 15:51.38 | 0:53.41 | 71363 | 75378 6 | 16:45.04 | 5:01.49 | 75379 | 98002 7 | 21:46.53 | 4:34.62 | 98003 | 118614 8 | 26:21.40 | 3:34.62 | 118615 | 134726 9 | 29:56.27 | 5:07.14 | 134727 | 157765 10 | 35:03.41 | 4:51.34 | 157766 | 179624 11 | 39:55.00 | 2:56.49 | 179625 | 192873 12 | 42:51.49 | 3:24.73 | 192874 | 208246 13 | 46:16.47 | 0:47.02 | 208247 | 211773

Track 1

Filename F:\Flac Rips\01 - Baka #65.wav

Pre-gap length 0:00:02.00

Peak level 90.0 % Extraction speed 2.9 X Track quality 100.0 % Test CRC 32C9B898 Copy CRC 32C9B898 Accurately ripped (confidence 1) [2A4971B4] (AR v2) Copy OK

Track 2

Filename F:\Flac Rips\02 - Everyday Music.wav

Peak level 98.9 % Extraction speed 3.9 X Track quality 100.0 % Test CRC AED8EFA5 Copy CRC AED8EFA5 Accurately ripped (confidence 1) [0BD8DC9F] (AR v2) Copy OK

Track 3

Filename F:\Flac Rips\03 - Riddle #1.wav

Pre-gap length 0:00:02.47

Peak level 97.1 % Extraction speed 4.1 X Track quality 100.0 % Test CRC 98CDBED7 Copy CRC 98CDBED7 Accurately ripped (confidence 1) [A6B2DA12] (AR v2) Copy OK

Track 4

Filename F:\Flac Rips\04 - Calmly.wav

Pre-gap length 0:00:03.47

Peak level 98.7 % Extraction speed 4.6 X Track quality 100.0 % Test CRC 842636C7 Copy CRC 842636C7 Accurately ripped (confidence 1) [5D3CB789] (AR v2) Copy OK

Track 5

Filename F:\Flac Rips\05 - Vjup.wav

Pre-gap length 0:00:02.49

Peak level 98.4 % Extraction speed 3.1 X Track quality 100.0 % Test CRC B516EDA4 Copy CRC B516EDA4 Accurately ripped (confidence 1) [E20DDFB3] (AR v2) Copy OK

Track 6

Filename F:\Flac Rips\06 - Tonk.wav

Pre-gap length 0:00:01.45

Peak level 98.4 % Extraction speed 5.1 X Track quality 100.0 % Test CRC 18CD7B1E Copy CRC 18CD7B1E Accurately ripped (confidence 1) [488AC07E] (AR v2) Copy OK

Track 7

Filename F:\Flac Rips\07 - The Wind Calmer.wav

Pre-gap length 0:00:02.18

Peak level 75.3 % Extraction speed 5.3 X Track quality 100.0 % Test CRC 3F892CC4 Copy CRC 3F892CC4 Accurately ripped (confidence 1) [994AB548] (AR v2) Copy OK

Track 8

Filename F:\Flac Rips\08 - Riddle #2.wav

Pre-gap length 0:00:03.47

Peak level 89.3 % Extraction speed 5.3 X Track quality 100.0 % Test CRC AC3D8EDB Copy CRC AC3D8EDB Accurately ripped (confidence 1) [A694E23D] (AR v2) Copy OK

Track 9

Filename F:\Flac Rips\09 - Azulito.wav

Pre-gap length 0:00:03.06

Peak level 50.6 % Extraction speed 5.9 X Track quality 100.0 % Test CRC 11E0AD55 Copy CRC 11E0AD55 Accurately ripped (confidence 1) [87AFDFC4] (AR v2) Copy OK

Track 10

Filename F:\Flac Rips\10 - Hundred-Handed.wav

Pre-gap length 0:00:03.45

Peak level 92.0 % Extraction speed 6.2 X Track quality 100.0 % Test CRC 0ECF9E14 Copy CRC 0ECF9E14 Accurately ripped (confidence 1) [9B94C087] (AR v2) Copy OK

Track 11

Filename F:\Flac Rips\11 - One Change.wav

Pre-gap length 0:00:02.59

Peak level 89.6 % Extraction speed 5.9 X Track quality 100.0 % Test CRC 490FCE04 Copy CRC 490FCE04 Accurately ripped (confidence 1) [ABBC09AA] (AR v2) Copy OK

Track 12

Filename F:\Flac Rips\12 - Winds.wav

Pre-gap length 0:00:01.44

Peak level 71.6 % Extraction speed 6.2 X Track quality 100.0 % Test CRC 9AC79A99 Copy CRC 9AC79A99 Accurately ripped (confidence 1) [CD9979C1] (AR v2) Copy OK

Track 13

Filename F:\Flac Rips\13 - GMBH.wav

Peak level 98.8 % Extraction speed 4.1 X Track quality 100.0 % Test CRC 95DA25BD Copy CRC 95DA25BD Accurately ripped (confidence 1) [3880BDA8] (AR v2) Copy OK

All tracks accurately ripped

No errors occurred

End of status report

==== Log checksum F4A22521F729C456F9137CF86AA76E5B33AA919978932FDF150464CEA5C73BBA ====
 
REM GENRE JazzREM DATE 2011REM DISCID B70B070DREM COMMENT "ExactAudioCopy v1.0b2"PERFORMER "Jon Balke and Batagraf"TITLE "Say and Play"FILE "01 - Baka #65.wav" WAVE TRACK 01 AUDIO TITLE "Baka #65" PERFORMER "Jon Balke and Batagraf" INDEX 01 00:00:00FILE "02 - Everyday Music.wav" WAVE TRACK 02 AUDIO TITLE "Everyday Music" PERFORMER "Jon Balke and Batagraf" INDEX 01 00:00:00 TRACK 03 AUDIO TITLE "Riddle #1" PERFORMER "Jon Balke and Batagraf" INDEX 00 05:34:45FILE "03 - Riddle #1.wav" WAVE INDEX 01 00:00:00 TRACK 04 AUDIO TITLE "Calmly" PERFORMER "Jon Balke and Batagraf" INDEX 00 03:33:58FILE "04 - Calmly.wav" WAVE INDEX 01 00:00:00 TRACK 05 AUDIO TITLE "Vjup" PERFORMER "Jon Balke and Batagraf" INDEX 00 04:40:20FILE "05 - Vjup.wav" WAVE INDEX 01 00:00:00 TRACK 06 AUDIO TITLE "Tonk" PERFORMER "Jon Balke and Batagraf" INDEX 00 00:51:71FILE "06 - Tonk.wav" WAVE INDEX 01 00:00:00 TRACK 07 AUDIO TITLE "The Wind Calmer" PERFORMER "Jon Balke and Batagraf" INDEX 00 04:59:31FILE "07 - The Wind Calmer.wav" WAVE INDEX 01 00:00:00 TRACK 08 AUDIO TITLE "Riddle #2" PERFORMER "Jon Balke and Batagraf" INDEX 00 04:31:15FILE "08 - Riddle #2.wav" WAVE INDEX 01 00:00:00 TRACK 09 AUDIO TITLE "Azulito" PERFORMER "Jon Balke and Batagraf" INDEX 00 03:31:56FILE "09 - Azulito.wav" WAVE INDEX 01 00:00:00 TRACK 10 AUDIO TITLE "Hundred-Handed" PERFORMER "Jon Balke and Batagraf" INDEX 00 05:03:44FILE "10 - Hundred-Handed.wav" WAVE INDEX 01 00:00:00 TRACK 11 AUDIO TITLE "One Change" PERFORMER "Jon Balke and Batagraf" INDEX 00 04:48:50FILE "11 - One Change.wav" WAVE INDEX 01 00:00:00 TRACK 12 AUDIO TITLE "Winds" PERFORMER "Jon Balke and Batagraf" INDEX 00 02:55:05FILE "12 - Winds.wav" WAVE INDEX 01 00:00:00FILE "13 - GMBH.wav" WAVE TRACK 13 AUDIO TITLE "GMBH" PERFORMER "Jon Balke and Batagraf" INDEX 01 00:00:00
Jon Balke: piano, keyboards, electronics, tungoné, darbouka, percussion
Helge Andreas Norbakken: sabar, gorong, djembe, talking drum, shakers, percussion
Emilie Stoesen Christensen: vocals
Erland Dahlen: drums
Torgeir Rebolledo Pedersen: poetry reading
Джон Болк - норвежский джазовый пианист и композитор. Он начал с классического фортепьяно, но переключился на блюз в 12, хотя сегодня он выступает в пределах нескольких жанров.В возрасте 18 лет он присоединился к квартету Арилда Андерсена. К середине 1980-ых он работал самостоятельно и станет одним из ведущих джазовых композиторов Норвегии. Он был в группах Радки Тонева прежде, чем присоединиться к Осло 13 и Masqualero в начале 80-ых. С 1989 он сосредоточился на своих собственных проектах, таких как Jokleba (с Одуном Клайве и За Йоргенсена).
В 2002 он сформировал группу удара Batagraf и в 2007 и с певицей Аминой Алауи.
Он - также создатель серии мультимедийных концертов на фестивале Vossajazz .


Трекер:  [ 29-Янв-2012 14:53 ]

  

Скачать .torrent

Размер .torrent файла 13 KB


Размер: 311 MB
Хэш (hash) релиза: 376c44ef6fe7841b3b3369e05d3867ea1956ba5a

Еще никто не оставлял запись к записи скачать торрент Jon Balke & Batagraf - Say and Play - 2011, FLAC . Будь первым!

!Обратная связь