Скачать через торрент музыку Horace Tapscott - Live at Lobero, Vol.1 - 2006, APE бесплатно без регистрации torrent

Если у вас наблюдаются проблемы со скриншотами, переходом по ссылками, скачиванием торрентов - проблемы в блокировщике рекламы AdBlock. #хорошегоДня!


Статистика раздачи
Размер:  381 MB   |    Зарегистрирован:  5 лет 8 месяцев   |    .torrent скачан:  25 раз   |   
Раздают:  1  
   
Загрузка...
 
Автор Сообщение

Umakiro

avatar Umakiro


Horace Tapscott - Live at Lobero, Vol.1

Жанр: Post-Bop
Страна-производитель диска: USA
Год издания диска: 2006
Издатель (лейбл): Nimbus West
Номер по каталогу: NS 2370 C
Страна: US Houston, TX
Аудиокодек: APE (*.ape)
Тип рипа: image+.cue
Битрейт аудио: lossless
Продолжительность: 01:10:57
Источник (релизер): сеть
Наличие сканов в содержимом раздачи: да
01. Inception [29:20]
02. Sketches of Drunken Mary [11:19]
03. Raisha's New Hip Dance [08:48]
04. Dark Tree [21:30]

Recorded on November 12, 1981, at the Lobero Theater, Santa Barbara, CA
 
Exact Audio Copy V1.0 beta 2 from 29. April 2011

EAC extraction logfile from 10. December 2011, 13:18

Horace Tapscott / Live at Lobero Volume 1

Used drive : ASUS DRW-22B2L Adapter: 0 ID: 1

Read mode : SecureUtilize accurate stream : YesDefeat audio cache : YesMake use of C2 pointers : No

Read offset correction : 6Overread into Lead-In and Lead-Out : NoFill up missing offset samples with silence : YesDelete leading and trailing silent blocks : NoNull samples used in CRC calculations : YesUsed interface : Native Win32 interface for Win NT & 2000

Used output format : Internal WAV RoutinesSample format : 44.100 Hz; 16 Bit; Stereo

TOC of the extracted CD

Track | Start | Length | Start sector | End sector --------------------------------------------------------- 1 | 0:00.00 | 29:20.02 | 0 | 132001 2 | 29:20.02 | 11:19.01 | 132002 | 182927 3 | 40:39.03 | 8:48.28 | 182928 | 222555 4 | 49:27.31 | 21:29.72 | 222556 | 319302

Range status and errors

Selected range

Filename D:\Donkey Files\Horace Tapscott - Live at Lobero, Vol. 1 (1981, Nimbus) [eac-ape-scans] byDrBull\Horace Tapscott - Live at Lobero Volume 1.wav

Peak level 98.8 % Extraction speed 5.0 X Range quality 100.0 % Test CRC B2AC5050 Copy CRC B2AC5050 Copy OK

No errors occurred

AccurateRip summary

Track 1 not present in databaseTrack 2 not present in databaseTrack 3 not present in databaseTrack 4 not present in database

None of the tracks are present in the AccurateRip database

End of status report

==== Log checksum 7A94FC5D44189186898DF491CF07A0131D631141AE34E4192B9DBFAF74B50804 ====
 
REM GENRE JazzREM DATE 1981REM DISCID 3710A104REM COMMENT "ExactAudioCopy v1.0b2"PERFORMER "Horace Tapscott"TITLE "Live at Lobero Volume 1"FILE "Horace Tapscott - Live at Lobero Volume 1.wav" WAVE TRACK 01 AUDIO TITLE "Inception" PERFORMER "Horace Tapscott" INDEX 01 00:00:00 TRACK 02 AUDIO TITLE "Sketches of Drunken Mary" PERFORMER "Horace Tapscott" INDEX 01 29:20:02 TRACK 03 AUDIO TITLE "Raisha's New Hip Dance" PERFORMER "Horace Tapscott" INDEX 01 40:39:03 TRACK 04 AUDIO TITLE "Dark Tree" PERFORMER "Horace Tapscott" INDEX 01 49:27:31
 
-----------------------

DON'T MODIFY THIS FILE

-----------------------

PERFORMER: auCDtect Task Manager, ver. 1.5.1RC6 build 1.5.1.7Copyright (c) 2008-2010 y-soft. All rights reservedhttp://y-soft.org

ANALYZER: auCDtect: CD records authenticity detector, version 0.8.2Copyright (c) 2004 Oleg Berngardt. All rights reserved.Copyright (c) 2004 Alexander Djourik. All rights reserved.

FILE: Horace Tapscott - Live at Lobero Volume 1.ape Size: 394340124 Hash: 41E31308FDEBDA4E0CDF5A4C3D351D67 Accuracy: -m0 Conclusion: CDDA 100% Signature: D77393C96D3F9C640D08EC1F0D5FBB3F6F282117
Horace Tapscott - piano
Roberto Miranda - bass
Sonship Theus - percussion


Трекер:  [ 29-Янв-2012 14:52 ]

  

Скачать .torrent

Размер .torrent файла 15 KB


Размер: 381 MB
Хэш (hash) релиза: f3ebbd14f4162f14f479223fb95e41b74412e163

Еще никто не оставлял запись к записи скачать торрент Horace Tapscott - Live at Lobero, Vol.1 - 2006, APE . Будь первым!

!Обратная связь