Скачать через торрент музыку Kenny Drew Trio - Kenny Drew with Paul Chambers, Philly Joe Jones - бесплатно без регистрации torrent

Если у вас наблюдаются проблемы со скриншотами, переходом по ссылками, скачиванием торрентов - проблемы в блокировщике рекламы AdBlock. #хорошегоДня!


Статистика раздачи
Размер:  221 MB   |    Зарегистрирован:  5 лет 8 месяцев   |    .torrent скачан:  30 раз   |   
Раздают:  1  
   
Загрузка...
 
Автор Сообщение

Umakiro

avatar Umakiro


Kenny Drew Trio - Kenny Drew with Paul Chambers, Philly Joe Jones

Жанр: Hard Bop
Страна-производитель диска: USA
Год издания диска: (1956)/1992
Издатель (лейбл): Riverside/OJC
Номер по каталогу: OJCCD-065-2(RLP-224)
Страна: US New York, NY
Аудиокодек: FLAC (*.flac)
Тип рипа: tracks+.cue
Битрейт аудио: lossless
Продолжительность: 00:42:47
Источник (релизер): mishka1981
Наличие сканов в содержимом раздачи: да
01. Caravan [04:56]
02. Come Rain or Come Shine [06:08]
03. Ruby, My Dear [05:45]
04. Weird-O [04:04]
05. Taking a Chance on Love [04:41]
06. When You Wish Upon a Star [05:18]
07. Blues for Nica [05:30]
08. It's Only a Paper Moon [06:25]
 
Exact Audio Copy V1.0 beta 1 from 15. November 2010

EAC extraction logfile from 9. January 2012, 14:41

Kenny Drew / Kenny Drew Trio

Used drive : TSSTcorpCDDVDW TS-L633A Adapter: 3 ID: 0

Read mode : SecureUtilize accurate stream : YesDefeat audio cache : YesMake use of C2 pointers : No

Read offset correction : 6Overread into Lead-In and Lead-Out : NoFill up missing offset samples with silence : YesDelete leading and trailing silent blocks : NoNull samples used in CRC calculations : YesUsed interface : Installed external ASPI interfaceGap handling : Appended to previous track

Used output format : User Defined EncoderSelected bitrate : 896 kBit/sQuality : HighAdd ID3 tag : NoCommand line compressor : C:\Program Files\Exact Audio Copy\FLAC\FLAC.EXEAdditional command line options : -8 -V -T "ARTIST=%a" -T "TITLE=%t" -T "ALBUM=%g" -T "DATE=%y" -T "TRACKNUMBER=%n" -T "TOTALTRACKS=%x" -T "GENRE=%m" -T "ALBUMARTIST=%v" -T "ALBUM ARTIST=%v" -T "COMMENT=EAC Secure Mode, Test & Copy, AccurateRip, FLAC -8" %s

TOC of the extracted CD

Track | Start | Length | Start sector | End sector --------------------------------------------------------- 1 | 0:00.00 | 4:56.03 | 0 | 22202 2 | 4:56.03 | 6:08.22 | 22203 | 49824 3 | 11:04.25 | 5:45.68 | 49825 | 75767 4 | 16:50.18 | 4:04.30 | 75768 | 94097 5 | 20:54.48 | 4:41.65 | 94098 | 115237 6 | 25:36.38 | 5:18.47 | 115238 | 139134 7 | 30:55.10 | 5:30.38 | 139135 | 163922 8 | 36:25.48 | 6:25.35 | 163923 | 192832

Track 1

Filename C:\MY RIPS\01 - Caravan.wav

Pre-gap length 0:00:02.00

Peak level 91.9 % Extraction speed 1.2 X Track quality 100.0 % Test CRC A7AF064B Copy CRC A7AF064B Accurately ripped (confidence 2) [94BC17D9] Copy OK

Track 2

Filename C:\MY RIPS\02 - Come Rain or Come Shine.wav

Pre-gap length 0:00:03.10

Peak level 99.9 % Extraction speed 1.4 X Track quality 100.0 % Test CRC AD284F9B Copy CRC AD284F9B Accurately ripped (confidence 2) [26A36067] Copy OK

Track 3

Filename C:\MY RIPS\03 - Ruby, My Dear.wav

Pre-gap length 0:00:02.67

Peak level 70.8 % Extraction speed 1.6 X Track quality 100.0 % Test CRC 81C66404 Copy CRC 81C66404 Accurately ripped (confidence 2) [B129314F] Copy OK

Track 4

Filename C:\MY RIPS\04 - Weird-O.wav

Pre-gap length 0:00:03.40

Peak level 100.0 % Extraction speed 1.2 X Track quality 99.9 % Test CRC 659C92BC Copy CRC 659C92BC Accurately ripped (confidence 2) [07687C3B] Copy OK

Track 5

Filename C:\MY RIPS\05 - Taking a Chance on Love.wav

Pre-gap length 0:00:02.35

Peak level 100.0 % Extraction speed 1.8 X Track quality 100.0 % Test CRC 401199B5 Copy CRC 401199B5 Accurately ripped (confidence 2) [79C5C379] Copy OK

Track 6

Filename C:\MY RIPS\06 - When You Wish Upon a Star.wav

Pre-gap length 0:00:02.68

Peak level 58.5 % Extraction speed 1.9 X Track quality 100.0 % Test CRC 088D8761 Copy CRC 088D8761 Accurately ripped (confidence 2) [355C8BD3] Copy OK

Track 7

Filename C:\MY RIPS\07 - Blues for Nica.wav

Pre-gap length 0:00:03.25

Peak level 79.3 % Extraction speed 2.0 X Track quality 100.0 % Test CRC B0057280 Copy CRC B0057280 Accurately ripped (confidence 2) [606B4E16] Copy OK

Track 8

Filename C:\MY RIPS\08 - It's Only a Paper Moon.wav

Pre-gap length 0:00:01.53

Peak level 92.0 % Extraction speed 2.1 X Track quality 100.0 % Test CRC 00BEBB78 Copy CRC 00BEBB78 Accurately ripped (confidence 2) [AE514B66] Copy OK

All tracks accurately ripped

No errors occurred

End of status report

==== Log checksum BE8C51FE4818B5E4EE59C4988D5CA89024F840B5A714DD535BFB145EA47CA7CD ====
 
REM GENRE jazzREM DATE 1956REM DISCID 710A0B08REM COMMENT "ExactAudioCopy v1.0b1"PERFORMER "Kenny Drew"TITLE "Kenny Drew Trio"FILE "01 - Caravan.wav" WAVE TRACK 01 AUDIO TITLE "Caravan" PERFORMER "Kenny Drew" INDEX 01 00:00:00 TRACK 02 AUDIO TITLE "Come Rain or Come Shine" PERFORMER "Kenny Drew" INDEX 00 04:52:68FILE "02 - Come Rain or Come Shine.wav" WAVE INDEX 01 00:00:00 TRACK 03 AUDIO TITLE "Ruby, My Dear" PERFORMER "Kenny Drew" INDEX 00 06:05:30FILE "03 - Ruby, My Dear.wav" WAVE INDEX 01 00:00:00 TRACK 04 AUDIO TITLE "Weird-O" PERFORMER "Kenny Drew" INDEX 00 05:42:28FILE "04 - Weird-O.wav" WAVE INDEX 01 00:00:00 TRACK 05 AUDIO TITLE "Taking a Chance on Love" PERFORMER "Kenny Drew" INDEX 00 04:01:70FILE "05 - Taking a Chance on Love.wav" WAVE INDEX 01 00:00:00 TRACK 06 AUDIO TITLE "When You Wish Upon a Star" PERFORMER "Kenny Drew" INDEX 00 04:38:72FILE "06 - When You Wish Upon a Star.wav" WAVE INDEX 01 00:00:00 TRACK 07 AUDIO TITLE "Blues for Nica" PERFORMER "Kenny Drew" INDEX 00 05:15:22FILE "07 - Blues for Nica.wav" WAVE INDEX 01 00:00:00 TRACK 08 AUDIO TITLE "It's Only a Paper Moon" PERFORMER "Kenny Drew" INDEX 00 05:28:60FILE "08 - It's Only a Paper Moon.wav" WAVE INDEX 01 00:00:00
 
[CUETools log; Date: 10.01.2012 14:30:01; Version: 2.1.1]Offset applied: 48[CTDB TOCID: ZeDdPIR6f8Bk.8NR6nazjSpMwBQ-] disk not present in database.[AccurateRip ID: 000d041f-0056aa52-710a0b08] found.Track [ CRC ] Status 01 [b851cb38] (0/4) No match 02 [40d69ac1] (0/4) No match 03 [1076d7ec] (0/4) No match 04 [7e5c0e27] (0/4) No match 05 [5bb99a66] (0/4) No match 06 [49803ad7] (0/4) No match 07 [69c64277] (0/4) No match 08 [13502965] (0/2) No matchOffsetted by -48: 01 [94bc17d9] (2/4) Accurately ripped 02 [26a36067] (2/4) Accurately ripped 03 [b129314f] (2/4) Accurately ripped 04 [07687c3b] (2/4) Accurately ripped 05 [79c5c379] (2/4) Accurately ripped 06 [355c8bd3] (2/4) Accurately ripped 07 [606b4e16] (2/4) Accurately ripped 08 [ae514b66] (2/2) Accurately ripped

Track Peak [ CRC32 ] [W/O NULL] [ LOG ] -- 100,0 [6F2304D1] [AD2FD765] 01 91,9 [1EEB4C0E] [D7AAB186] [A7AF064B] 02 99,9 [BC3BA835] [1D79562A] CRC32 : offset -48 03 70,8 [704E6692] [1AC76185] CRC32 : offset -48 04 100,0 [E795BDF1] [5C484F6F] CRC32 : offset -48 05 100,0 [8E202A9A] [61C1D2BE] CRC32 : offset -48 06 58,5 [467F3F98] [F1D8215B] CRC32 : offset -48 07 79,3 [8EAB5DBE] [CE6DAA29] CRC32 : offset -48 08 92,0 [7A355E18] [601EB8F5] CRC32 : offset -48
 
[CUETools log; Date: 10.01.2012 17:44:49; Version: 2.1.1]Offset applied: 48[CTDB TOCID: ygvfMGcPgPP6Osso4ShhCZNYgtI-] disk not present in database.[AccurateRip ID: 000ce28c-0055ca4a-6009f108] found.Track [ CRC ] Status 01 [f9d7d4af] (0/5) No match 02 [90a7916a] (0/5) No match 03 [d54aeb13] (0/5) No match 04 [16996066] (0/5) No match 05 [d413cb0d] (0/5) No match 06 [55edde8e] (0/5) No match 07 [e4677eca] (0/5) No match 08 [19ae25e0] (0/5) No matchOffsetted by -48: 01 [d667164f] (5/5) Accurately ripped 02 [c5c2260a] (5/5) Accurately ripped 03 [3da36473] (5/5) Accurately ripped 04 [a1055856] (5/5) Accurately ripped 05 [730fc35d] (5/5) Accurately ripped 06 [132ccf1e] (5/5) Accurately ripped 07 [0cf0c21a] (5/5) Accurately ripped 08 [a6d3b4a0] (0/5) No match but offset

Track Peak [ CRC32 ] [W/O NULL] [ LOG ] -- 99,9 [79382B23] [F8A257BD] CRC32 : offset -48 01 99,9 [5F813148] [70EDED00] 02 99,9 [4DF70518] [5EE2D55E] 03 87,7 [B3998F34] [161933B3] 04 99,9 [AE978AB1] [DF195E29] 05 99,9 [01B60E2B] [C6DC03A8] 06 73,7 [B55C90F2] [0A1CE9C5] 07 95,6 [347A0F06] [DE202940] 08 99,9 [C3217972] [A256E600]
Kenny Drew (piano)
Paul Chambers (bass)
Philly Joe Jones (drums)


Трекер:  [ 29-Янв-2012 14:52 ]

  

Скачать .torrent

Размер .torrent файла 18 KB


Размер: 221 MB
Хэш (hash) релиза: 0218cd54150cfcda6ef9a96914b3081d150f5029

Еще никто не оставлял запись к записи скачать торрент Kenny Drew Trio - Kenny Drew with Paul Chambers, Philly Joe Jones - . Будь первым!

!Обратная связь