Скачать через торрент музыку Michael Ghegan - Michael Ghegan - 2004, FLAC бесплатно без регистрации torrent

Если у вас наблюдаются проблемы со скриншотами, переходом по ссылками, скачиванием торрентов - проблемы в блокировщике рекламы AdBlock. #хорошегоДня!


Статистика раздачи
Размер:  280 MB   |    Зарегистрирован:  5 лет 8 месяцев   |    .torrent скачан:  37 раз   |   
Раздают:  1  
   
Загрузка...
 
Автор Сообщение

Umakiro

avatar Umakiro


Michael Ghegan / Michael Ghegan

Жанр: Smooth Jazz, Saxophone
Страна-производитель диска: E.U.
Год издания диска: 2004
Издатель (лейбл): Bluetone Productions
Номер по каталогу: 783707772028
Страна: US Los Angeles
Аудиокодек: FLAC (*.flac)
Тип рипа: tracks+.cue
Битрейт аудио: lossless
Продолжительность: 00:42:42
Источник (релизер): croml
Наличие сканов в содержимом раздачи: да
01. To Not Have You [03:49]
02. Deep End Theory [05:20]
03. He Said, She Said [04:24]
04. Finding Mariah [04:28]
05. More To Give [04:37]
06. Paris Metro A.M. [04:10]
07. Other Shades [03:45]
08. If Fortune Lied [04:20]
09. Justaliddabit [04:30]
10. ...Should You Stay [03:19]
 
Exact Audio Copy V0.99 prebeta 4 from 23. January 2008

EAC extraction logfile from 10. June 2009, 23:10

Michael Ghegan / Michael Ghegan

Used drive : HL-DT-STDVDRAM GSA-H42N Adapter: 0 ID: 1

Read mode : SecureUtilize accurate stream : YesDefeat audio cache : YesMake use of C2 pointers : No

Read offset correction : 667Overread into Lead-In and Lead-Out : NoFill up missing offset samples with silence : YesDelete leading and trailing silent blocks : NoNull samples used in CRC calculations : YesUsed interface : Installed external ASPI interfaceGap handling : Appended to previous track

Used output format : User Defined EncoderSelected bitrate : 320 kBit/sQuality : HighAdd ID3 tag : NoCommand line compressor : C:\Program Files\Exact Audio Copy\flac.exeAdditional command line options : -8 -V -T "ARTIST=%a" -T "TITLE=%t" -T "ALBUM=%g" -T "DATE=%y" -T "TRACKNUMBER=%n" -T "GENRE=%m" -T "COMMENT=EAC Flac 1.1.4 -8" %s

TOC of the extracted CD

Track | Start | Length | Start sector | End sector --------------------------------------------------------- 1 | 0:00.00 | 3:49.36 | 0 | 17210 2 | 3:49.36 | 5:20.66 | 17211 | 41276 3 | 9:10.27 | 4:24.15 | 41277 | 61091 4 | 13:34.42 | 4:28.11 | 61092 | 81202 5 | 18:02.53 | 4:37.09 | 81203 | 101986 6 | 22:39.62 | 4:10.09 | 101987 | 120745 7 | 26:49.71 | 3:45.24 | 120746 | 137644 8 | 30:35.20 | 4:20.22 | 137645 | 157166 9 | 34:55.42 | 4:30.43 | 157167 | 177459 10 | 39:26.10 | 3:19.74 | 177460 | 192458

Track 1

Filename D:\My Rips\Michael Ghegan - 2004- Michael Ghegan\01 - To Not Have You .wav

Pre-gap length 0:00:02.00

Peak level 99.8 % Track quality 99.9 % Test CRC 81E7E1F9 Copy CRC 81E7E1F9 Accurately ripped (confidence 1) [8739AC3F] Copy OK

Track 2

Filename D:\My Rips\Michael Ghegan - 2004- Michael Ghegan\02 - Deep End Theory .wav

Peak level 99.3 % Track quality 100.0 % Test CRC AF0E962E Copy CRC AF0E962E Accurately ripped (confidence 1) [EA351BA9] Copy OK

Track 3

Filename D:\My Rips\Michael Ghegan - 2004- Michael Ghegan\03 - He Said, She Said .wav

Peak level 99.8 % Track quality 100.0 % Test CRC 176D4232 Copy CRC 176D4232 Accurately ripped (confidence 1) [37BCF274] Copy OK

Track 4

Filename D:\My Rips\Michael Ghegan - 2004- Michael Ghegan\04 - Finding Mariah .wav

Pre-gap length 0:00:01.82

Peak level 99.8 % Track quality 100.0 % Test CRC F61F79D3 Copy CRC F61F79D3 Accurately ripped (confidence 1) [D8D9F39E] Copy OK

Track 5

Filename D:\My Rips\Michael Ghegan - 2004- Michael Ghegan\05 - More To Give .wav

Pre-gap length 0:00:00.73

Peak level 99.8 % Track quality 100.0 % Test CRC 077F2091 Copy CRC 077F2091 Accurately ripped (confidence 1) [1DC2C8B3] Copy OK

Track 6

Filename D:\My Rips\Michael Ghegan - 2004- Michael Ghegan\06 - Paris Metro A.M. .wav

Pre-gap length 0:00:00.66

Peak level 99.8 % Track quality 100.0 % Test CRC F83AB594 Copy CRC F83AB594 Accurately ripped (confidence 1) [6D0653DB] Copy OK

Track 7

Filename D:\My Rips\Michael Ghegan - 2004- Michael Ghegan\07 - Other Shades .wav

Pre-gap length 0:00:00.77

Peak level 99.8 % Track quality 100.0 % Test CRC ED361236 Copy CRC ED361236 Accurately ripped (confidence 1) [4D249134] Copy OK

Track 8

Filename D:\My Rips\Michael Ghegan - 2004- Michael Ghegan\08 - If Fortune Lied .wav

Pre-gap length 0:00:00.53

Peak level 99.8 % Track quality 100.0 % Test CRC 65D024B8 Copy CRC 65D024B8 Accurately ripped (confidence 1) [EFD19DC3] Copy OK

Track 9

Filename D:\My Rips\Michael Ghegan - 2004- Michael Ghegan\09 - Justaliddabit .wav

Pre-gap length 0:00:00.85

Peak level 99.8 % Track quality 100.0 % Test CRC 0EB68215 Copy CRC 0EB68215 Accurately ripped (confidence 1) [58B46092] Copy OK

Track 10

Filename D:\My Rips\Michael Ghegan - 2004- Michael Ghegan\10 - ...Should You Stay .wav

Pre-gap length 0:00:01.58

Peak level 99.8 % Track quality 100.0 % Test CRC 801AF859 Copy CRC 801AF859 Accurately ripped (confidence 1) [09A51E33] Copy OK

All tracks accurately ripped

No errors occurred

End of status report
 
REM GENRE JazzREM DATE 2004REM DISCID 7C0A060AREM COMMENT "ExactAudioCopy v0.99pb4"PERFORMER "Michael Ghegan"TITLE "Michael Ghegan "FILE "01 - To Not Have You .wav" WAVE TRACK 01 AUDIO TITLE "To Not Have You" PERFORMER "Michael Ghegan" INDEX 01 00:00:00FILE "02 - Deep End Theory .wav" WAVE TRACK 02 AUDIO TITLE "Deep End Theory" PERFORMER "Michael Ghegan" INDEX 01 00:00:00FILE "03 - He Said, She Said .wav" WAVE TRACK 03 AUDIO TITLE "He Said, She Said" PERFORMER "Michael Ghegan" INDEX 01 00:00:00 TRACK 04 AUDIO TITLE "Finding Mariah" PERFORMER "Michael Ghegan" INDEX 00 04:22:28FILE "04 - Finding Mariah .wav" WAVE INDEX 01 00:00:00 TRACK 05 AUDIO TITLE " More To Give" PERFORMER "Michael Ghegan" INDEX 00 04:27:31FILE "05 - More To Give .wav" WAVE INDEX 01 00:00:00 TRACK 06 AUDIO TITLE "Paris Metro A.M." PERFORMER "Michael Ghegan" INDEX 00 04:36:34FILE "06 - Paris Metro A.M. .wav" WAVE INDEX 01 00:00:00 TRACK 07 AUDIO TITLE "Other Shades" PERFORMER "Michael Ghegan" INDEX 00 04:09:26FILE "07 - Other Shades .wav" WAVE INDEX 01 00:00:00 TRACK 08 AUDIO TITLE "If Fortune Lied" PERFORMER "Michael Ghegan" INDEX 00 03:44:59FILE "08 - If Fortune Lied .wav" WAVE INDEX 01 00:00:00 TRACK 09 AUDIO TITLE "Justaliddabit" PERFORMER "Michael Ghegan" INDEX 00 04:19:33FILE "09 - Justaliddabit .wav" WAVE INDEX 01 00:00:00 TRACK 10 AUDIO TITLE "...Should You Stay " PERFORMER "Michael Ghegan" INDEX 00 04:28:74FILE "10 - ...Should You Stay .wav" WAVE INDEX 01 00:00:00
 
[CUETools log; Date: 10.01.2012 21:31:45; Version: 2.1.1]Offset applied: 48[CTDB TOCID: a37Uq4q8CWmjnYdDwRXqoDB.nmk-] disk not present in database.[AccurateRip ID: 00109af7-00845745-7c0a060a] found.Track [ CRC ] Status 01 [edd84af4] (0/1) No match 02 [9222d2b8] (0/1) No match 03 [6243b424] (0/1) No match 04 [637c767e] (0/1) No match 05 [9b5beb53] (0/1) No match 06 [840f239b] (0/1) No match 07 [21c9f714] (0/1) No match 08 [94a14da3] (0/1) No match 09 [064402b2] (0/1) No match 10 [a1803f83] (0/1) No matchOffsetted by -48: 01 [8739ac3f] (1/1) Accurately ripped 02 [ea351ba9] (1/1) Accurately ripped 03 [37bcf274] (1/1) Accurately ripped 04 [d8d9f39e] (1/1) Accurately ripped 05 [1dc2c8b3] (1/1) Accurately ripped 06 [6d0653db] (1/1) Accurately ripped 07 [4d249134] (1/1) Accurately ripped 08 [efd19dc3] (1/1) Accurately ripped 09 [58b46092] (1/1) Accurately ripped 10 [09a51e33] (1/1) Accurately ripped

Track Peak [ CRC32 ] [W/O NULL] [ LOG ] -- 99,8 [197C0D25] [9951CEFC] 01 99,8 [B2D5FCC4] [013C5C43] CRC32 : offset -48 02 99,3 [0979563F] [EBC5B17F] CRC32 : offset -48 03 99,8 [BF4B77DC] [B4728A0D] CRC32 : offset -48 04 99,8 [FB384F1D] [6B6272FD] CRC32 : offset -48 05 99,8 [9A0B92D4] [77638AEB] CRC32 : offset -48 06 99,8 [FAABD100] [ABB6FABB] CRC32 : offset -48 07 99,8 [CDBAA761] [E07E6E91] CRC32 : offset -48 08 99,8 [BEE1F627] [1F280019] CRC32 : offset -48 09 99,8 [0E79CD32] [2027DCDD] CRC32 : offset -48 10 99,8 [1943D2AE] [798ED801] CRC32 : offset -48
Michael Ghegan - Saxophones; Keyboards; Drum programming & Acoustic Guitar
Derek Nakamoto - Acoustic Piano
Mel Brown - Bass
Michael Bland - Drums
Alberto DeAlmar - Guitar
Keiko Matsui - Acoustic Piano
Rob Chiarelli - Additional Drum Programming & Sounds


Трекер:  [ 29-Янв-2012 14:52 ]

  

Скачать .torrent

Размер .torrent файла 12 KB


Размер: 280 MB
Хэш (hash) релиза: 3d9e26f4cf41401ce817cd7a3a090150021f655c

Еще никто не оставлял запись к записи скачать торрент Michael Ghegan - Michael Ghegan - 2004, FLAC . Будь первым!

!Обратная связь