Скачать через торрент музыку Johnny Griffin Quartet with Kenny Drew, Wilbur Ware, Philly Joe Jones - Way Out! - 1994, WavPack бесплатно без регистрации torrent

Если у вас наблюдаются проблемы со скриншотами, переходом по ссылками, скачиванием торрентов - проблемы в блокировщике рекламы AdBlock. #хорошегоДня!


Статистика раздачи
Размер:  208 MB   |    Зарегистрирован:  5 лет 8 месяцев   |    .torrent скачан:  41 раз   |   
Раздают:  1  
   
Загрузка...
 
Автор Сообщение

Umakiro

avatar Umakiro


Johnny Griffin Quartet with Kenny Drew, Wilbur Ware, Philly Joe Jones - Way Out!

Жанр: Bop, Hard Bop
Страна-производитель диска: USA
Год издания диска: 1994
Издатель (лейбл): Riverside/Original Jazz Classics
Номер по каталогу: OJCCD 1855-2/RLP-274
Страна: US Chicago, IL
Аудиокодек: WavPack (*.wv)
Тип рипа: image+.cue
Битрейт аудио: lossless
Продолжительность: 00:42:53
Источник (релизер): ffsf
Наличие сканов в содержимом раздачи: да
01. Where's Your Overcoat, Boy? [06:19]
02. Hot Sausage [04:06]
03. Sunny Monday [10:01]
04. Cherokee [06:47]
05. Teri's Tune [08:07]
06. Little John [07:33]
Recorded at Reeves Sound Studios, New York, New York in February 1958.
 
Exact Audio Copy V1.0 beta 3 from 29. August 2011

EAC extraction logfile from 13. January 2012, 16:32

Johnny Griffin Quartet / Way Out!

Used drive : HL-DT-STDVDRAM GT20N Adapter: 0 ID: 0

Read mode : SecureUtilize accurate stream : YesDefeat audio cache : YesMake use of C2 pointers : No

Read offset correction : 667Overread into Lead-In and Lead-Out : NoFill up missing offset samples with silence : YesDelete leading and trailing silent blocks : NoNull samples used in CRC calculations : YesUsed interface : Installed external ASPI interface

Used output format : Internal WAV RoutinesSample format : 44.100 Hz; 16 Bit; Stereo

TOC of the extracted CD

Track | Start | Length | Start sector | End sector --------------------------------------------------------- 1 | 0:00.00 | 6:20.22 | 0 | 28521 2 | 6:20.22 | 4:07.40 | 28522 | 47086 3 | 10:27.62 | 9:58.73 | 47087 | 92009 4 | 20:26.60 | 6:47.05 | 92010 | 122539 5 | 27:13.65 | 8:06.42 | 122540 | 159031 6 | 35:20.32 | 7:33.35 | 159032 | 193041

Range status and errors

Selected range

Filename D:\EAC\Johnny Griffin Quartet - Way Out!\Johnny Griffin Quartet - Way Out!.wav

Peak level 100.0 % Extraction speed 3.9 X Range quality 100.0 % Test CRC 4F17A92C Copy CRC 4F17A92C Copy OK

No errors occurred

AccurateRip summary

Track 1 accurately ripped (confidence 3) [A2CAF81D] (AR v1)Track 2 accurately ripped (confidence 3) [45134D66] (AR v1)Track 3 accurately ripped (confidence 3) [978E8FE7] (AR v1)Track 4 accurately ripped (confidence 3) [13E2D93C] (AR v1)Track 5 accurately ripped (confidence 3) [E75233E0] (AR v1)Track 6 accurately ripped (confidence 2) [E39CD0F0] (AR v1)

All tracks accurately ripped

End of status report

==== Log checksum 6148B318C4165700E9EBCEACF3E836ACABFEA943A816ACA3EF1C52A4AB2CBC16 ====
 
REM GENRE JazzREM DATE 1958REM DISCID 430A0D06REM COMMENT "ExactAudioCopy v1.0b3"PERFORMER "Johnny Griffin Quartet"TITLE "Way Out!"FILE "Johnny Griffin Quartet - Way Out!.wav" WAVE TRACK 01 AUDIO TITLE "Where's Your Overcoat, Boy?" PERFORMER "Johnny Griffin Quartet" INDEX 01 00:00:00 TRACK 02 AUDIO TITLE "Hot Sausage" PERFORMER "Johnny Griffin Quartet" INDEX 00 06:19:74 INDEX 01 06:20:22 TRACK 03 AUDIO TITLE "Sunny Monday" PERFORMER "Johnny Griffin Quartet" INDEX 00 10:25:10 INDEX 01 10:27:62 TRACK 04 AUDIO TITLE "Cherokee" PERFORMER "Johnny Griffin Quartet" INDEX 01 20:26:60 TRACK 05 AUDIO TITLE "Teri's Tune" PERFORMER "Johnny Griffin Quartet" INDEX 01 27:13:65 TRACK 06 AUDIO TITLE "Little John" PERFORMER "Johnny Griffin Quartet" INDEX 01 35:20:32
Johnny Griffin Quartet:
Johnny Griffin (tenor saxophone)
Kenny Drew (piano)
Wilbur Ware (bass)
Philly Joe Jones (drums)


Трекер:  [ 29-Янв-2012 14:51 ]

  

Скачать .torrent

Размер .torrent файла 17 KB


Размер: 208 MB
Хэш (hash) релиза: b86052fa20c718c8e7e6e20f954fdaf0ec8e4070

Еще никто не оставлял запись к записи скачать торрент Johnny Griffin Quartet with Kenny Drew, Wilbur Ware, Philly Joe Jones - Way Out! - 1994, WavPack . Будь первым!

!Обратная связь