Скачать через торрент музыку Johnny Griffin - Johnny Griffins Studio Jazz Party - 1997, WavPack бесплатно без регистрации torrent

Если у вас наблюдаются проблемы со скриншотами, переходом по ссылками, скачиванием торрентов - проблемы в блокировщике рекламы AdBlock. #хорошегоДня!


Статистика раздачи
Размер:  280 MB   |    Зарегистрирован:  5 лет 8 месяцев   |    .torrent скачан:  35 раз   |   
Раздают:  1  
   
Загрузка...
 
Автор Сообщение

Umakiro

avatar Umakiro


Johnny Griffin - Johnny Griffin's Studio Jazz Party

Жанр: Bop, Hard Bop
Страна-производитель диска: USA
Год издания диска: 1997
Издатель (лейбл): Riverside/Original Jazz Classics
Номер по каталогу: OJCCD -1902-2/RLP-9338
Страна: US Chicago, IL
Аудиокодек: WavPack (*.wv)
Тип рипа: image+.cue
Битрейт аудио: lossless
Продолжительность: 00:46:41
Источник (релизер): ffsf
Наличие сканов в содержимом раздачи: да
01. Party Time [01:20]
02. Good Bait [12:37]
03. There Will Never Be Another You [08:34]
04. Toe-Tappin' [08:08]
05. You've Changed [07:51]
06. Low Gravy [08:11]

Recorded at Plaza Sound Studios, New York, New York on September 27, 1960.
 
Exact Audio Copy V1.0 beta 3 from 29. August 2011

EAC extraction logfile from 13. January 2012, 15:53

Johnny Griffin / Studio Jazz Party

Used drive : HL-DT-STDVDRAM GT20N Adapter: 0 ID: 0

Read mode : SecureUtilize accurate stream : YesDefeat audio cache : YesMake use of C2 pointers : No

Read offset correction : 667Overread into Lead-In and Lead-Out : NoFill up missing offset samples with silence : YesDelete leading and trailing silent blocks : NoNull samples used in CRC calculations : YesUsed interface : Installed external ASPI interface

Used output format : Internal WAV RoutinesSample format : 44.100 Hz; 16 Bit; Stereo

TOC of the extracted CD

Track | Start | Length | Start sector | End sector --------------------------------------------------------- 1 | 0:00.00 | 1:20.30 | 0 | 6029 2 | 1:20.30 | 12:37.30 | 6030 | 62834 3 | 13:57.60 | 8:33.27 | 62835 | 101336 4 | 22:31.12 | 8:07.70 | 101337 | 137931 5 | 30:39.07 | 7:50.73 | 137932 | 173254 6 | 38:30.05 | 8:11.40 | 173255 | 210119

Range status and errors

Selected range

Filename D:\EAC\Johnny Griffin - Studio Jazz Party\Johnny Griffin - Studio Jazz Party.wav

Peak level 100.0 % Extraction speed 3.9 X Range quality 100.0 % Test CRC CB5322E1 Copy CRC CB5322E1 Copy OK

No errors occurred

AccurateRip summary

Track 1 accurately ripped (confidence 2) [1FDC9295] (AR v1)Track 2 accurately ripped (confidence 2) [4FE8EDFA] (AR v1)Track 3 accurately ripped (confidence 2) [09651205] (AR v1)Track 4 accurately ripped (confidence 2) [1F3B0FFF] (AR v1)Track 5 accurately ripped (confidence 2) [61AA8CB3] (AR v1)Track 6 accurately ripped (confidence 2) [FDEA1BC4] (AR v1)

All tracks accurately ripped

End of status report

==== Log checksum 468B8A8FEF2BEAE6325BD0A30E4FA06E63FF03EC7E452765DF2C6FE6F8992FFB ====
 
REM GENRE JazzREM DATE 1960REM DISCID 420AF106REM COMMENT "ExactAudioCopy v1.0b3"PERFORMER "Johnny Griffin"TITLE "Studio Jazz Party"FILE "Johnny Griffin - Studio Jazz Party.wav" WAVE TRACK 01 AUDIO TITLE "Party Time" PERFORMER "Johnny Griffin" INDEX 01 00:00:00 TRACK 02 AUDIO TITLE "Good Bait" PERFORMER "Johnny Griffin" INDEX 01 01:20:30 TRACK 03 AUDIO TITLE "There Will Never Be Another You" PERFORMER "Johnny Griffin" INDEX 01 13:57:60 TRACK 04 AUDIO TITLE "Toe-Tappin'" PERFORMER "Johnny Griffin" INDEX 01 22:31:12 TRACK 05 AUDIO TITLE "You've Changed" PERFORMER "Johnny Griffin" INDEX 01 30:39:07 TRACK 06 AUDIO TITLE "Low Gravy" PERFORMER "Johnny Griffin" INDEX 01 38:30:05
Johnny Griffin (tenor saxophone)
Dave Burns (trumpet)
Norman Simmons (piano)
Vic Sproles (bass)
Ben Riley (drums)


Трекер:  [ 29-Янв-2012 14:51 ]

  

Скачать .torrent

Размер .torrent файла 11 KB


Размер: 280 MB
Хэш (hash) релиза: e877a19b3694a1ed6bbfea92dd7fa5d3fa2a5a3a

Еще никто не оставлял запись к записи скачать торрент Johnny Griffin - Johnny Griffins Studio Jazz Party - 1997, WavPack . Будь первым!

!Обратная связь