Скачать через торрент музыку Johnny Griffin - Do Nothing til You Hear from Me - 1998, WavPack бесплатно без регистрации torrent

Если у вас наблюдаются проблемы со скриншотами, переходом по ссылками, скачиванием торрентов - проблемы в блокировщике рекламы AdBlock. #хорошегоДня!


Статистика раздачи
Размер:  221 MB   |    Зарегистрирован:  5 лет 8 месяцев   |    .torrent скачан:  34 раза   |   
Раздают:  1  
   
Загрузка...
 
Автор Сообщение

Umakiro

avatar Umakiro


Johnny Griffin - Do Nothing 'til You Hear from Me

Жанр: Bop, Hard Bop
Страна-производитель диска: USA
Год издания диска: 1998
Издатель (лейбл): Riverside /Original Jazz Classics
Номер по каталогу: OJCCD-1908-2/RLP-9462
Страна: US Chicago, IL
Аудиокодек: WavPack (*.wv)
Тип рипа: image+.cue
Битрейт аудио: lossless
Источник (релизер): ffsf
Наличие сканов в содержимом раздачи: да
01. Do Nothing 'Til You Hear from Me [05:38]
02. The Midnight Sun Will Never Set [04:58]
03. That's All [06:26]
04. Slow Burn [08:20]
05. Wonder Why [05:25]
06. Heads Up [05:35]

Recorded at Tsubo, Berkeley, California in June 1963
 
Exact Audio Copy V1.0 beta 3 from 29. August 2011

EAC extraction logfile from 13. January 2012, 17:24

Johnny Griffin / Do Nothing 'Til You Hear From Me

Used drive : HL-DT-STDVDRAM GT20N Adapter: 0 ID: 0

Read mode : SecureUtilize accurate stream : YesDefeat audio cache : YesMake use of C2 pointers : No

Read offset correction : 667Overread into Lead-In and Lead-Out : NoFill up missing offset samples with silence : YesDelete leading and trailing silent blocks : NoNull samples used in CRC calculations : YesUsed interface : Installed external ASPI interface

Used output format : Internal WAV RoutinesSample format : 44.100 Hz; 16 Bit; Stereo

TOC of the extracted CD

Track | Start | Length | Start sector | End sector --------------------------------------------------------- 1 | 0:00.00 | 5:38.62 | 0 | 25411 2 | 5:38.62 | 4:58.00 | 25412 | 47761 3 | 10:36.62 | 6:25.48 | 47762 | 76684 4 | 17:02.35 | 8:19.60 | 76685 | 114169 5 | 25:22.20 | 5:24.70 | 114170 | 138539 6 | 30:47.15 | 5:35.42 | 138540 | 163706

Range status and errors

Selected range

Filename D:\EAC\Johnny Griffin - Do Nothing 'Til You Hear From Me\Johnny Griffin - Do Nothing 'Til You Hear From Me.wav

Peak level 100.0 % Extraction speed 3.7 X Range quality 100.0 % Test CRC 848AF492 Copy CRC 848AF492 Copy OK

No errors occurred

AccurateRip summary

Track 1 not present in databaseTrack 2 not present in databaseTrack 3 not present in databaseTrack 4 not present in databaseTrack 5 not present in databaseTrack 6 not present in database

None of the tracks are present in the AccurateRip database

End of status report

==== Log checksum F340226D5D627819E6967287D9056AA56BF878E7E495E5D597E5D2D5392DD0F2 ====
 
REM GENRE JazzREM DATE 1963REM DISCID 43088606REM COMMENT "ExactAudioCopy v1.0b3"PERFORMER "Johnny Griffin"TITLE "Do Nothing 'Til You Hear From Me"FILE "Johnny Griffin - Do Nothing 'Til You Hear From Me.wav" WAVE TRACK 01 AUDIO TITLE "Do Nothing 'Til You Hear from Me" PERFORMER "Johnny Griffin" INDEX 01 00:00:00 TRACK 02 AUDIO TITLE "The Midnight Sun Will Never Set" PERFORMER "Johnny Griffin" INDEX 01 05:38:62 TRACK 03 AUDIO TITLE "That's All" PERFORMER "Johnny Griffin" INDEX 01 10:36:62 TRACK 04 AUDIO TITLE "Slow Burn" PERFORMER "Johnny Griffin" INDEX 01 17:02:35 TRACK 05 AUDIO TITLE "Wonder Why" PERFORMER "Johnny Griffin" INDEX 01 25:22:20 TRACK 06 AUDIO TITLE "Heads Up" PERFORMER "Johnny Griffin" INDEX 01 30:47:15
Johnny Griffin (tenor saxophone)
Buddy Montgomery (vibraphone, piano)
Monk Montgomery (bass)
Arthur Taylor (drums)


Трекер:  [ 29-Янв-2012 14:51 ]

  

Скачать .torrent

Размер .torrent файла 18 KB


Размер: 221 MB
Хэш (hash) релиза: 8c179ef35ebf8e53e64c6a58ead81562f22d5d15

Еще никто не оставлял запись к записи скачать торрент Johnny Griffin - Do Nothing til You Hear from Me - 1998, WavPack . Будь первым!

!Обратная связь