Скачать через торрент музыку Herb Hall - Old Tyme Modern - 1992, FLAC бесплатно без регистрации torrent

Если у вас наблюдаются проблемы со скриншотами, переходом по ссылками, скачиванием торрентов - проблемы в блокировщике рекламы AdBlock. #хорошегоДня!


Статистика раздачи
Размер:  212 MB   |    Зарегистрирован:  5 лет 8 месяцев   |    .torrent скачан:  33 раза   |   
Раздают:  1  
   
Загрузка...
 
Автор Сообщение

Umakiro

avatar Umakiro


Herb Hall - Old Tyme Modern

Жанр: New Orleans jazz
Страна-производитель диска: Canada
Год издания диска: 1992
Издатель (лейбл): Sackville
Номер по каталогу: SKCD2-3003
Страна: US Reserve, LA
Аудиокодек: FLAC (*.flac)
Тип рипа: tracks+.cue
Битрейт аудио: lossless
Продолжительность: 00:39:42
Источник (релизер): сеть
Наличие сканов в содержимом раздачи: да
01. Old Fashioned Love [03:44]
02. All Of Me [04:50]
03. Buddy Bolden's Blues [03:21]
04. Crying My Hear Out For You [04:54]
05. Swinging Down Shaw's Hall [04:12]
06. Beale Street Blues [03:57]
07. How Come You Do Me Like You Do [02:34]
08. Willow Weep For Me [03:36]
09. Do You Know What It Means To Miss New Orleans [04:53]
10. Sweet Georgia Brown [03:41]

Recorded at RCA Studios, Toronto, Ontario, Canada 1969
 
Exact Audio Copy V1.0 beta 1 from 15. November 2010

EAC extraction logfile from 14. January 2012, 18:44

Herb Hall / Old Tyme Modern

Used drive : TSSTcorpCDDVDW SH-S203N Adapter: 0 ID: 2

Read mode : SecureUtilize accurate stream : YesDefeat audio cache : YesMake use of C2 pointers : No

Read offset correction : 6Overread into Lead-In and Lead-Out : NoFill up missing offset samples with silence : YesDelete leading and trailing silent blocks : NoNull samples used in CRC calculations : YesUsed interface : Installed external ASPI interfaceGap handling : Appended to previous track

Used output format : User Defined EncoderSelected bitrate : 768 kBit/sQuality : HighAdd ID3 tag : NoCommand line compressor : C:\Program Files\Exact Audio Copy-NEW\Flac\flac.exeAdditional command line options : -8 -V -T "ARTIST=%a" -T "TITLE=%t" -T "ALBUM=%g" -T "DATE=%y" -T "TRACKNUMBER=%n" -T "TOTALTRACKS=%x" -T "GENRE=%m" -T "ALBUMARTIST=%v" -T "ALBUM ARTIST=%v" -T "COMMENT=EAC V1.01b1, Secure Mode, Test & Copy, AccurateRip, FL

TOC of the extracted CD

Track | Start | Length | Start sector | End sector --------------------------------------------------------- 1 | 0:00.00 | 3:44.07 | 0 | 16806 2 | 3:44.07 | 4:50.68 | 16807 | 38624 3 | 8:35.00 | 3:21.45 | 38625 | 53744 4 | 11:56.45 | 4:54.17 | 53745 | 75811 5 | 16:50.62 | 4:12.55 | 75812 | 94766 6 | 21:03.42 | 3:57.28 | 94767 | 112569 7 | 25:00.70 | 2:34.20 | 112570 | 124139 8 | 27:35.15 | 3:36.05 | 124140 | 140344 9 | 31:11.20 | 4:53.20 | 140345 | 162339 10 | 36:04.40 | 3:41.20 | 162340 | 178934

Track 1

Filename J:\New Rips\Herb Hall - Old Tyme Modern (1969) [FLAC]\disc 3Aof4\01 - Old Fashioned Love.wav

Pre-gap length 0:00:02.00

Peak level 83.6 % Extraction speed 4.8 X Track quality 100.0 % Test CRC A05F57AC Copy CRC A05F57AC Track not present in AccurateRip database Copy OK

Track 2

Filename J:\New Rips\Herb Hall - Old Tyme Modern (1969) [FLAC]\disc 3Aof4\02 - All Of Me.wav

Pre-gap length 0:00:02.62

Peak level 78.5 % Extraction speed 4.6 X Track quality 99.9 % Test CRC 143093F6 Copy CRC 143093F6 Track not present in AccurateRip database Copy OK

Track 3

Filename J:\New Rips\Herb Hall - Old Tyme Modern (1969) [FLAC]\disc 3Aof4\03 - Buddy Bolden's Blues.wav

Pre-gap length 0:00:02.63

Peak level 97.7 % Extraction speed 5.7 X Track quality 100.0 % Test CRC D94811A5 Copy CRC D94811A5 Track not present in AccurateRip database Copy OK

Track 4

Filename J:\New Rips\Herb Hall - Old Tyme Modern (1969) [FLAC]\disc 3Aof4\04 - Crying My Hear Out For You.wav

Pre-gap length 0:00:02.60

Peak level 73.8 % Extraction speed 6.4 X Track quality 100.0 % Test CRC 2F016C56 Copy CRC 2F016C56 Track not present in AccurateRip database Copy OK

Track 5

Filename J:\New Rips\Herb Hall - Old Tyme Modern (1969) [FLAC]\disc 3Aof4\05 - Swinging Down Shaw's Hall.wav

Pre-gap length 0:00:02.60

Peak level 97.2 % Extraction speed 6.7 X Track quality 100.0 % Test CRC 7658B630 Copy CRC 7658B630 Track not present in AccurateRip database Copy OK

Track 6

Filename J:\New Rips\Herb Hall - Old Tyme Modern (1969) [FLAC]\disc 3Aof4\06 - Seale Street Blues.wav

Pre-gap length 0:00:02.62

Peak level 92.2 % Extraction speed 7.0 X Track quality 100.0 % Test CRC 2BC6F8D7 Copy CRC 2BC6F8D7 Track not present in AccurateRip database Copy OK

Track 7

Filename J:\New Rips\Herb Hall - Old Tyme Modern (1969) [FLAC]\disc 3Aof4\07 - How Come You Do Me Like You Do.wav

Pre-gap length 0:00:02.60

Peak level 79.6 % Extraction speed 6.7 X Track quality 100.0 % Test CRC 91D0676E Copy CRC 91D0676E Track not present in AccurateRip database Copy OK

Track 8

Filename J:\New Rips\Herb Hall - Old Tyme Modern (1969) [FLAC]\disc 3Aof4\08 - Willow Weep For Me.wav

Pre-gap length 0:00:02.63

Peak level 73.2 % Extraction speed 7.4 X Track quality 100.0 % Test CRC 427EEB4F Copy CRC 427EEB4F Track not present in AccurateRip database Copy OK

Track 9

Filename J:\New Rips\Herb Hall - Old Tyme Modern (1969) [FLAC]\disc 3Aof4\09 - Do You Know What It Means To Miss New Orleans.wav

Pre-gap length 0:00:02.63

Peak level 77.4 % Extraction speed 8.0 X Track quality 100.0 % Test CRC 82886F04 Copy CRC 82886F04 Track not present in AccurateRip database Copy OK

Track 10

Filename J:\New Rips\Herb Hall - Old Tyme Modern (1969) [FLAC]\disc 3Aof4\10 - Sweet Georgia Brown.wav

Pre-gap length 0:00:02.63

Peak level 87.9 % Extraction speed 8.0 X Track quality 100.0 % Test CRC 73271932 Copy CRC 73271932 Track not present in AccurateRip database Copy OK

None of the tracks are present in the AccurateRip database

No errors occurred

End of status report

==== Log checksum A34467701E8ED2191E581F046441B65A786096B516F4BA75F04D9CA3784D17BC ====
 
REM GENRE JazzREM DATE 1969REM DISCID 7809510AREM COMMENT "ExactAudioCopy v1.0b1"PERFORMER "Herb Hall"TITLE "Old Tyme Modern"FILE "01 - Old Fashioned Love.flac" WAVE TRACK 01 AUDIO TITLE "Old Fashioned Love" PERFORMER "Herb Hall" INDEX 01 00:00:00 TRACK 02 AUDIO TITLE "All Of Me" PERFORMER "Herb Hall" INDEX 00 03:41:20FILE "02 - All Of Me.flac" WAVE INDEX 01 00:00:00 TRACK 03 AUDIO TITLE "Buddy Bolden's Blues" PERFORMER "Herb Hall" INDEX 00 04:48:05FILE "03 - Buddy Bolden's Blues.flac" WAVE INDEX 01 00:00:00 TRACK 04 AUDIO TITLE "Crying My Hear Out For You" PERFORMER "Herb Hall" INDEX 00 03:18:60FILE "04 - Crying My Hear Out For You.flac" WAVE INDEX 01 00:00:00 TRACK 05 AUDIO TITLE "Swinging Down Shaw's Hall" PERFORMER "Herb Hall" INDEX 00 04:51:32FILE "05 - Swinging Down Shaw's Hall.flac" WAVE INDEX 01 00:00:00 TRACK 06 AUDIO TITLE "Beale Street Blues" PERFORMER "Herb Hall" INDEX 00 04:09:68FILE "06 - Beale Street Blues.flac" WAVE INDEX 01 00:00:00 TRACK 07 AUDIO TITLE "How Come You Do Me Like You Do" PERFORMER "Herb Hall" INDEX 00 03:54:43FILE "07 - How Come You Do Me Like You Do.flac" WAVE INDEX 01 00:00:00 TRACK 08 AUDIO TITLE "Willow Weep For Me" PERFORMER "Herb Hall" INDEX 00 02:31:32FILE "08 - Willow Weep For Me.flac" WAVE INDEX 01 00:00:00 TRACK 09 AUDIO TITLE "Do You Know What It Means To Miss New Orleans" PERFORMER "Herb Hall" INDEX 00 03:33:17FILE "09 - Do You Know What It Means To Miss New Orleans.flac" WAVE INDEX 01 00:00:00 TRACK 10 AUDIO TITLE "Sweet Georgia Brown" PERFORMER "Herb Hall" INDEX 00 04:50:32FILE "10 - Sweet Georgia Brown.flac" WAVE INDEX 01 00:00:00
Clarinet - Herb Hall
Piano - Claude Hopkins
Drums - Buzzy Drootin
Bass - Arvell Shaw


Трекер:  [ 29-Янв-2012 14:50 ]

  

Скачать .torrent

Размер .torrent файла 18 KB


Размер: 212 MB
Хэш (hash) релиза: 00cbbd3c76e2049a7467259ee032b4d6a0398aaa

Еще никто не оставлял запись к записи скачать торрент Herb Hall - Old Tyme Modern - 1992, FLAC . Будь первым!

!Обратная связь