Скачать через торрент музыку William Cepeda & AfroRican Jazz - My Roots and Beyond - 1998, APE бесплатно без регистрации torrent

Если у вас наблюдаются проблемы со скриншотами, переходом по ссылками, скачиванием торрентов - проблемы в блокировщике рекламы AdBlock. #хорошегоДня!


Статистика раздачи
Размер:  535 MB   |    Зарегистрирован:  5 лет 8 месяцев   |    .torrent скачан:  23 раза   |   
Раздают:  1  
   
Загрузка...
 
Автор Сообщение

Umakiro

avatar Umakiro


William Cepeda & AfroRican Jazz - My Roots and Beyond

Жанр: Latin Jazz, World Fusion
Страна-производитель диска: USA
Год издания диска: 1998
Издатель (лейбл): Blue Jackel
Номер по каталогу: BJAC 5028-2
Страна: Puerto Rico
Аудиокодек: APE (*.ape)
Тип рипа: image+.cue
Битрейт аудио: lossless
Продолжительность: 01:14:10
Источник (релизер): dreadbull
Наличие сканов в содержимом раздачи: да
01. Bomba Swing [07:12]
02. Ponte Pa'l Monte [05:43]
03. Pa' Mi Cuembe [06:39]
04. Waiting for Carmen [04:42]
05. Toca Mi Caracol [07:46]
06. Quasi Plena [07:40]
07. For Now and Forever [09:16]
08. Sara [06:46]
09. Pa' Mi Gente [04:50]
10. Colors [06:41]
11. Afrorican Jam [06:55]
 
EAC extraction logfile from 20. May 2010, 16:30 for CDWilliam Cepeda Afrorican Jazz / My Roots and Beyond

Used drive : PLEXTOR DVDR PX-750A Adapter: 0 ID: 1Read mode : Secure with NO C2, accurate stream, disable cacheRead offset correction : 102Overread into Lead-In and Lead-Out : No

Used output format : Internal WAV Routines 44.100 Hz; 16 Bit; Stereo

Other options : Fill up missing offset samples with silence : Yes Delete leading and trailing silent blocks : No Installed external ASPI interface

Range status and errorsSelected range Filename E:\Donkey Files\William Cepeda - My Roots and Beyond (1998, Blue Jackel) [eac-ape-scans] byDrBull\CDImage.wav

Peak level 100.0 % Range quality 100.0 % CRC D574D4D9 Copy OK

No errors occured

End of status report
 
PERFORMER "William Cepeda Afrorican Jazz"TITLE "My Roots and Beyond"FILE "CDImage.wav" WAVE TRACK 01 AUDIO TITLE "Bomba Swing" PERFORMER "William Cepeda Afrorican Jazz" INDEX 01 00:00:00 TRACK 02 AUDIO TITLE "Ponte Pa'l Monte" PERFORMER "William Cepeda Afrorican Jazz" INDEX 01 07:12:45 TRACK 03 AUDIO TITLE "Pa' Mi Cuembe" PERFORMER "William Cepeda Afrorican Jazz" INDEX 00 12:55:40 INDEX 01 12:57:05 TRACK 04 AUDIO TITLE "Waiting for Carmen" PERFORMER "William Cepeda Afrorican Jazz" INDEX 00 19:34:65 INDEX 01 19:36:65 TRACK 05 AUDIO TITLE "Toca Mi Caracol" PERFORMER "William Cepeda Afrorican Jazz" INDEX 00 24:16:70 INDEX 01 24:17:52 TRACK 06 AUDIO TITLE "Quasi Plena" PERFORMER "William Cepeda Afrorican Jazz" INDEX 00 32:02:35 INDEX 01 32:03:72 TRACK 07 AUDIO TITLE "For Now and Forever" PERFORMER "William Cepeda Afrorican Jazz" INDEX 00 39:42:15 INDEX 01 39:43:62 TRACK 08 AUDIO TITLE "Sara" PERFORMER "William Cepeda Afrorican Jazz" INDEX 00 48:58:17 INDEX 01 48:59:50 TRACK 09 AUDIO TITLE "Pa' Mi Gente" PERFORMER "William Cepeda Afrorican Jazz" INDEX 00 55:44:67 INDEX 01 55:46:27 TRACK 10 AUDIO TITLE "Colors" PERFORMER "William Cepeda Afrorican Jazz" INDEX 00 60:34:37 INDEX 01 60:35:27 TRACK 11 AUDIO TITLE "Afrorican Jam" PERFORMER "William Cepeda Afrorican Jazz" INDEX 00 67:15:32 INDEX 01 67:16:27
William Cepeda Afrorican Jazz:
William Cepeda - vocals, trombone, cuá, conch shell, percussion;
Donny McCaslin - saxophone;
Omar Kabir - trumpet, conch shell;
Raúl Romero - guitar;
Uli Güssendoerfer - piano, keyboards;
Rubén Rodríguez - bass;
Mark Walker - drums;
Juan Gutiérrez - vocals, bomba drums.
Special guests:
Slide Hampton - trombone (#1,8);
Paquito D'Rivera - alto saxophone, clarinet (#4,6);
Yomo Toro - cuatro (#2).
Additional musicians:
Luis Bonilla - trombone (#3,11);
Tony Lujan - trumpet (#2,5-7,11);
Luis Aquino - trumpet (#4,6,11);
Luis Disla - saxophone (#2,9);
Eric Figueroa - piano, keyboards (#1);
John Benitez - bass (#6,10,11);
Bobby Sanabria - vocals, bongos (#1,2,5-7,11);
Edgardo Miranda - cuatro (#2);
Tito Matos - pandereta, bomba drums, vocals (#1,4,6,7);
Cita Rodríguez, Richie Viruet, Juan Usera - vocals (#1,2,5-7,11);
Julio Merced - verso negro (#1,2,5-7,11).


Трекер:  [ 29-Янв-2012 14:50 ]

  

Скачать .torrent

Размер .torrent файла 11 KB


Размер: 535 MB
Хэш (hash) релиза: 8bc0ef236d184d18b6cb66d9ce10baafdfb57bf9

Еще никто не оставлял запись к записи скачать торрент William Cepeda & AfroRican Jazz - My Roots and Beyond - 1998, APE . Будь первым!

!Обратная связь