Скачать через торрент музыку Tamma - Tamma with Don Cherry & Ed Blackwell - 1985, APE бесплатно без регистрации torrent

Если у вас наблюдаются проблемы со скриншотами, переходом по ссылками, скачиванием торрентов - проблемы в блокировщике рекламы AdBlock. #хорошегоДня!


Статистика раздачи
Размер:  374 MB   |    Зарегистрирован:  5 лет 8 месяцев   |    .torrent скачан:  28 раз   |   
Раздают:  1  
   
Загрузка...
 
Автор Сообщение

Umakiro

avatar Umakiro


Tamma - Tamma with Don Cherry & Ed Blackwell

Жанр: World Fusion, Afro-Fusion
Страна-производитель диска: Norway
Год издания диска: 1985
Издатель (лейбл): Odin
Номер по каталогу: NJ 4014-2
Аудиокодек: APE (*.ape)
Тип рипа: image+.cue
Битрейт аудио: lossless
Продолжительность: 00:58:30
Источник (релизер): dreadbull
Наличие сканов в содержимом раздачи: да
01. Don's Tune/Samodado [13:38]
02. Tamma Song/Afro Disco [08:40]
03. Senegal [07:17]
04. Oo Dja Na/Ga Song [07:58]
05. Tara [14:49]
06. Ebou [06:08]

Recorded live at Molde International Jazz Festival, July 27 & 28 1984
 
EAC extraction logfile from 13. October 2010, 16:11 for CDTamma / Tamma with Don Cherry & Ed Blackwell

Used drive : PLEXTOR DVDR PX-750A Adapter: 0 ID: 1Read mode : Secure with NO C2, accurate stream, disable cacheRead offset correction : 102Overread into Lead-In and Lead-Out : No

Used output format : Internal WAV Routines 44.100 Hz; 16 Bit; Stereo

Other options : Fill up missing offset samples with silence : Yes Delete leading and trailing silent blocks : No Installed external ASPI interface

Range status and errorsSelected range Filename E:\Donkey Files\Tamma with Don Cherry & Ed Blackwell (1985, Odin) [eac-ape-scans] byDrBull\CDImage.wav

Peak level 92.1 % Range quality 100.0 % CRC 6BF7F42D Copy OK

No errors occured

End of status report
 
CATALOG 0000000000000PERFORMER "Tamma"TITLE "Tamma with Don Cherry & Ed Blackwell"FILE "CDImage.wav" WAVE TRACK 01 AUDIO TITLE "Don's Tune/Samodado" PERFORMER "Tamma" ISRC NOFUA8514010 INDEX 01 00:00:00 TRACK 02 AUDIO TITLE "Tamma Song/Afro Disco" PERFORMER "Tamma" ISRC NOFUA8514020 INDEX 01 13:38:42 TRACK 03 AUDIO TITLE "Senegal" PERFORMER "Tamma" ISRC NOFUA8514030 INDEX 00 22:18:00 INDEX 01 22:22:67 TRACK 04 AUDIO TITLE "Oo Dja Na/Ga Song" PERFORMER "Tamma" ISRC NOFUA8514040 INDEX 00 29:35:08 INDEX 01 29:41:25 TRACK 05 AUDIO TITLE "Tara" PERFORMER "Tamma" ISRC NOFUA8514050 INDEX 00 37:33:10 INDEX 01 37:37:62 TRACK 06 AUDIO TITLE "Ebou" PERFORMER "Tamma" ISRC NOFUA8514060 INDEX 01 52:22:22
Miki N'Doye - Percussion, Tamma, Voice
Per Jorgensen - Percussion, Trumpet, Voice
Erik Balke - Flute, Percussion, Saxophone, Voice
Sveinung Hovensjø - Percussion, Bass (Electric), Voice
Finn Sletten - Percussion, Drums, Voice
Ed Blackwell - Percussion, Drums
Don Cherry - Trumpet, Voice, Dozongouni (Aftrican guitar)


Трекер:  [ 29-Янв-2012 14:50 ]

  

Скачать .torrent

Размер .torrent файла 15 KB


Размер: 374 MB
Хэш (hash) релиза: 210b63cee41d10063a889125399261dbb905f661

Еще никто не оставлял запись к записи скачать торрент Tamma - Tamma with Don Cherry & Ed Blackwell - 1985, APE . Будь первым!

!Обратная связь