Скачать через торрент музыку Wayne Wallace - Three in One - 2000, APE бесплатно без регистрации torrent

Если у вас наблюдаются проблемы со скриншотами, переходом по ссылками, скачиванием торрентов - проблемы в блокировщике рекламы AdBlock. #хорошегоДня!


Статистика раздачи
Размер:  457 MB   |    Зарегистрирован:  5 лет 8 месяцев   |    .torrent скачан:  32 раза   |   
Раздают:  1  
   
Загрузка...
 
Автор Сообщение

Umakiro

avatar Umakiro


Wayne Wallace - Three in One

Жанр: Latin Jazz, World Fusion, Smooth Jazz, Trombone
Страна-производитель диска: USA
Год издания диска: 2000
Издатель (лейбл): Spirit Nectar
Номер по каталогу: SNLJ 003
Страна: USA California - SF
Аудиокодек: APE (*.ape)
Тип рипа: image+.cue
Битрейт аудио: lossless
Продолжительность: 01:13:09
Источник (релизер): dreadbull
Наличие сканов в содержимом раздачи: да
01. ibanyale [02:03]
02. straight no chaser [06:13]
03. el paseo [08:05]
04. cafe con azucar [07:00]
05. incantation [06:07]
06. primera vista [06:53]
07. moon rays [07:29]
08. slhouettes [07:11]
09. samba nueva [05:40]
10. three in one [06:08]
11. art of the dance [06:30]
12. ago elegna obukenke [03:50]

Rec.: One Little Indian Studios, Richmond, CA (10/1999-11/1999)
OTR Studios, Belmont, CA (10/1999-11/1999)
 
EAC extraction logfile from 2. November 2010, 12:48 for CDWayne Wallace / three in one

Used drive : PLEXTOR DVDR PX-750A Adapter: 0 ID: 1Read mode : Secure with NO C2, accurate stream, disable cacheRead offset correction : 102Overread into Lead-In and Lead-Out : No

Used output format : Internal WAV Routines 44.100 Hz; 16 Bit; Stereo

Other options : Fill up missing offset samples with silence : Yes Delete leading and trailing silent blocks : No Installed external ASPI interface

Range status and errorsSelected range Filename E:\Donkey Files\Wayne Wallace - Three in One (2000, Spirit Nectar) [eac-ape-scans] byDrBull\CDImage.wav

Peak level 100.0 % Range quality 100.0 % CRC CC3BEBE3 Copy OK

No errors occured

End of status report
 
PERFORMER "Wayne Wallace"TITLE "three in one"FILE "CDImage.wav" WAVE TRACK 01 AUDIO TITLE "ibanyale" PERFORMER "Wayne Wallace" INDEX 01 00:00:00 TRACK 02 AUDIO TITLE "straight no chaser" PERFORMER "Wayne Wallace" INDEX 01 02:03:35 TRACK 03 AUDIO TITLE "el paseo" PERFORMER "Wayne Wallace" INDEX 00 08:16:12 INDEX 01 08:17:47 TRACK 04 AUDIO TITLE "cafe con azucar" PERFORMER "Wayne Wallace" INDEX 00 16:21:25 INDEX 01 16:25:05 TRACK 05 AUDIO TITLE "incantation" PERFORMER "Wayne Wallace" INDEX 00 23:21:40 INDEX 01 23:24:70 TRACK 06 AUDIO TITLE "primera vista" PERFORMER "Wayne Wallace" INDEX 00 29:28:27 INDEX 01 29:30:37 TRACK 07 AUDIO TITLE "moon rays" PERFORMER "Wayne Wallace" INDEX 00 36:21:65 INDEX 01 36:23:37 TRACK 08 AUDIO TITLE "slhouettes" PERFORMER "Wayne Wallace" INDEX 00 43:50:50 INDEX 01 43:55:05 TRACK 09 AUDIO TITLE "samba nueva" PERFORMER "Wayne Wallace" INDEX 00 51:01:62 INDEX 01 51:04:25 TRACK 10 AUDIO TITLE "three in one" PERFORMER "Wayne Wallace" INDEX 00 56:41:17 INDEX 01 56:44:70 TRACK 11 AUDIO TITLE "art of the dance" PERFORMER "Wayne Wallace" INDEX 00 62:49:12 INDEX 01 62:52:70 TRACK 12 AUDIO TITLE "ago elegna obukenke" PERFORMER "Wayne Wallace" INDEX 00 69:19:57 INDEX 01 69:21:67
Wayne Wallace (trombone, keyboards, clave, shekere)
John Santos (vocals, shekere)
David Yamasaki (guitar, electric guitar)
Melecio Magdaluyo (flute, clarinet, alto saxophone)
Ray Lucas (flute)
Rev. Ron Stallings (soprano & tenor saxophone)
John L. Worley, Jr., Louis Fasman (trumpet)
Jeff Cressman (trombone)
Frank Martin (piano, keyboards)
Murray Low (piano)
Paul van Wageningen (drums)
Michael Spiro (congas, guiro, percussion)
Jesús Diaz (congas, shekere, timbales)
Pete Escovedo (shekere)
Orestes Vilató (timbales)


Трекер:  [ 29-Янв-2012 14:49 ]

  

Скачать .torrent

Размер .torrent файла 18 KB


Размер: 457 MB
Хэш (hash) релиза: 300a2a119ce3e7bee957d23d1ac4e19d97df40ae

Еще никто не оставлял запись к записи скачать торрент Wayne Wallace - Three in One - 2000, APE . Будь первым!

!Обратная связь