Скачать через торрент музыку Chris Washburne & the SYOTOS Band - Fields of Moons - 2010, APE бесплатно без регистрации torrent

Если у вас наблюдаются проблемы со скриншотами, переходом по ссылками, скачиванием торрентов - проблемы в блокировщике рекламы AdBlock. #хорошегоДня!


Статистика раздачи
Размер:  276 MB   |    Зарегистрирован:  5 лет 8 месяцев   |    .torrent скачан:  31 раз   |   
Раздают:  1  
   
Загрузка...
 
Автор Сообщение

Umakiro

avatar Umakiro


Chris Washburne & the SYOTOS Band - Fields of Moons

Жанр: Latin jazz
Страна-производитель диска: USA
Год издания диска: 2010
Издатель (лейбл): Jazzheads
Номер по каталогу: JH 1180
Страна: USA Ohio
Аудиокодек: APE (*.ape)
Тип рипа: image+.cue
Битрейт аудио: lossless
Продолжительность: 00:52:24
Источник (релизер): dreadbull
Наличие сканов в содержимом раздачи: да
01. Fields Of Moons [04:42]
02. Seas Of Slumber [03:48]
03. Obsesiуn [06:28]
04. Poinciana [05:10]
05. Duke Ellington's Sound Of Love [04:11]
06. When Lights Are Low [04:35]
07. Non Spoken [05:14]
08. Evening Rites [04:28]
09. Long Time Coming [07:08]
10. Do You Know What It Means To Miss New Orleans [06:40]
 
EAC extraction logfile from 28. January 2011, 19:21 for CDChris Washburne and the SYOTOS band / Fields Of Moons

Used drive : ASUS DRW-22B2L Adapter: 0 ID: 1Read mode : Secure with NO C2, accurate stream, disable cacheRead offset correction : 6Overread into Lead-In and Lead-Out : No

Used output format : Internal WAV Routines 44.100 Hz; 16 Bit; Stereo

Other options : Fill up missing offset samples with silence : Yes Delete leading and trailing silent blocks : No Installed external ASPI interface

Range status and errorsSelected range Filename D:\Donkey Files\Chris Washburne - Fields of Moons (2010) [eac-ape-scans]\CDImage.wav

Peak level 98.8 % Range quality 99.9 % CRC 5026A390 Copy OK

No errors occured

End of status report
 
PERFORMER "Chris Washburne and the SYOTOS band"TITLE "Fields Of Moons"FILE "CDImage.wav" WAVE TRACK 01 AUDIO TITLE "Fields Of Moons" PERFORMER "Chris Washburne and the SYOTOS band" INDEX 01 00:00:00 TRACK 02 AUDIO TITLE "Seas Of Slumber" PERFORMER "Chris Washburne and the SYOTOS band" INDEX 00 04:42:09 INDEX 01 04:44:47 TRACK 03 AUDIO TITLE "Obsesiуn" PERFORMER "Chris Washburne and the SYOTOS band" INDEX 00 08:30:56 INDEX 01 08:32:56 TRACK 04 AUDIO TITLE "Poinciana" PERFORMER "Chris Washburne and the SYOTOS band" INDEX 00 14:58:22 INDEX 01 15:00:22 TRACK 05 AUDIO TITLE "Duke Ellington's Sound Of Love" PERFORMER "Chris Washburne and the SYOTOS band" INDEX 00 20:08:11 INDEX 01 20:11:11 TRACK 06 AUDIO TITLE "When Lights Are Low" PERFORMER "Chris Washburne and the SYOTOS band" INDEX 00 24:19:37 INDEX 01 24:22:37 TRACK 07 AUDIO TITLE "Non Spoken" PERFORMER "Chris Washburne and the SYOTOS band" INDEX 00 28:54:25 INDEX 01 28:56:24 TRACK 08 AUDIO TITLE "Evening Rites" PERFORMER "Chris Washburne and the SYOTOS band" INDEX 00 34:08:66 INDEX 01 34:11:21 TRACK 09 AUDIO TITLE "Long Time Coming" PERFORMER "Chris Washburne and the SYOTOS band" INDEX 00 38:36:00 INDEX 01 38:38:34 TRACK 10 AUDIO TITLE "Do You Know What It Means To Miss New Orleans" PERFORMER "Chris Washburne and the SYOTOS band" INDEX 00 45:44:10 INDEX 01 45:47:39
Ole Mathisen (clarinet, soprano saxophone, tenor saxophone);
John Walsh (trumpet, flugelhorn);
Chris Washburne (trombone, tuba);
Barry Olsen (piano);
Leo Traversa (electric bass);
Diego Lopez (drums);
Cristian Rivera (percussion).


Трекер:  [ 29-Янв-2012 14:49 ]

  

Скачать .torrent

Размер .torrent файла 11 KB


Размер: 276 MB
Хэш (hash) релиза: e47dde66ce00a85dcbeb50bd2e7085af4f9a2713

Еще никто не оставлял запись к записи скачать торрент Chris Washburne & the SYOTOS Band - Fields of Moons - 2010, APE . Будь первым!

!Обратная связь