Скачать через торрент музыку Bert van den Brink - Berts Bytes - 2007, FLAC бесплатно без регистрации torrent

Если у вас наблюдаются проблемы со скриншотами, переходом по ссылками, скачиванием торрентов - проблемы в блокировщике рекламы AdBlock. #хорошегоДня!


Статистика раздачи
Размер:  185 MB   |    Зарегистрирован:  5 лет 8 месяцев   |    .torrent скачан:  22 раза   |   
Раздают:  1  
   
Загрузка...
 
Автор Сообщение

Umakiro

avatar Umakiro


Bert van den Brink - Bert's Bytes

Жанр: Contemporary jazz, Post-Bop
Страна-производитель диска: Austria
Год издания диска: 2007
Издатель (лейбл): Challenge Records
Номер по каталогу: 70142
Страна: Netherland Geldrop
Аудиокодек: FLAC (*.flac)
Тип рипа: image+.cue
Битрейт аудио: lossless
Продолжительность: 01:04:09
Источник (релизер): janwal46
Наличие сканов в содержимом раздачи: да
01. Theme and Variations [09:45]
02. Fourths [01:30]
03. Valse Cliche [04:14]
04. Little Owl [04:06]
05. Thirds [01:26]
06. Blues for Oliver [04:31]
07. Pensativa [06:59]
08. Early Autumn [04:55]
09. Just Octaves [02:06]
10. Tristesse [05:32]
11. Woods [05:02]
12. Chase Blues [04:31]
13. Seconds [01:53]
14. Bachlude nr. 1 [07:39]
 
Exact Audio Copy V0.99 prebeta 5 from 4. May 2009

EAC extraction logfile from 1. July 2010, 22:47

Bert Van Den Brink / Bert's Bytes

Used drive : _NEC DVD_RW ND-2500A Adapter: 1 ID: 0

Read mode : SecureUtilize accurate stream : YesDefeat audio cache : YesMake use of C2 pointers : No

Read offset correction : 48Overread into Lead-In and Lead-Out : NoFill up missing offset samples with silence : YesDelete leading and trailing silent blocks : NoNull samples used in CRC calculations : YesUsed interface : Native Win32 interface for Win NT & 2000

Used output format : Internal WAV RoutinesSample format : 44.100 Hz; 16 Bit; Stereo

TOC of the extracted CD

Track | Start | Length | Start sector | End sector --------------------------------------------------------- 1 | 0:00.00 | 9:45.36 | 0 | 43910 2 | 9:45.36 | 1:30.01 | 43911 | 50661 3 | 11:15.37 | 4:13.63 | 50662 | 69699 4 | 15:29.25 | 4:06.23 | 69700 | 88172 5 | 19:35.48 | 1:25.61 | 88173 | 94608 6 | 21:01.34 | 4:31.37 | 94609 | 114970 7 | 25:32.71 | 6:58.44 | 114971 | 146364 8 | 32:31.40 | 4:55.06 | 146365 | 168495 9 | 37:26.46 | 2:06.16 | 168496 | 177961 10 | 39:32.62 | 5:31.49 | 177962 | 202835 11 | 45:04.36 | 5:02.31 | 202836 | 225516 12 | 50:06.67 | 4:30.47 | 225517 | 245813 13 | 54:37.39 | 1:52.50 | 245814 | 254263 14 | 56:30.14 | 7:39.01 | 254264 | 288689

Range status and errors

Selected range

Filename F:\AVAXHOME\Bert Van Den Brink - Bert's Bytes (2007)\Bert Van Den Brink - Bert's Bytes.wav

Peak level 88.1 % Range quality 100.0 % Copy CRC 08C6BAE2 Copy OK

No errors occurred

AccurateRip summary

Track 1 accurately ripped (confidence 1) [01CAEB37]Track 2 accurately ripped (confidence 1) [54329CC0]Track 3 accurately ripped (confidence 1) [E4B2591C]Track 4 accurately ripped (confidence 1) [03A99125]Track 5 accurately ripped (confidence 1) [DC237FEB]Track 6 accurately ripped (confidence 1) [31E0AD41]Track 7 accurately ripped (confidence 1) [6FDA80AD]Track 8 accurately ripped (confidence 1) [2EF167AE]Track 9 accurately ripped (confidence 1) [48FE4739]Track 10 accurately ripped (confidence 1) [88EAD648]Track 11 accurately ripped (confidence 1) [BB9A8255]Track 12 accurately ripped (confidence 1) [61272BAE]Track 13 accurately ripped (confidence 1) [56661E19]Track 14 accurately ripped (confidence 1) [5A4E2FB3]

All tracks accurately ripped

End of status report
 
REM GENRE JazzREM DATE 2007REM DISCID D20F090EREM COMMENT "ExactAudioCopy v0.99pb5"PERFORMER "Bert Van Den Brink"TITLE "Bert's Bytes"FILE "Bert Van Den Brink - Bert's Bytes.flac" WAVE TRACK 01 AUDIO TITLE "Theme and Variations" PERFORMER "Bert Van Den Brink" FLAGS DCP INDEX 01 00:00:00 TRACK 02 AUDIO TITLE Fourths PERFORMER "Bert Van Den Brink" FLAGS DCP INDEX 01 09:45:36 TRACK 03 AUDIO TITLE "Valse Cliche" PERFORMER "Bert Van Den Brink" FLAGS DCP INDEX 01 11:15:37 TRACK 04 AUDIO TITLE "Little Owl" PERFORMER "Bert Van Den Brink" FLAGS DCP INDEX 01 15:29:25 TRACK 05 AUDIO TITLE Thirds PERFORMER "Bert Van Den Brink" FLAGS DCP INDEX 01 19:35:48 TRACK 06 AUDIO TITLE "Blues for Oliver" PERFORMER "Bert Van Den Brink" FLAGS DCP INDEX 01 21:01:34 TRACK 07 AUDIO TITLE Pensativa PERFORMER "Bert Van Den Brink" FLAGS DCP INDEX 01 25:32:71 TRACK 08 AUDIO TITLE "Early Autumn" PERFORMER "Bert Van Den Brink" FLAGS DCP INDEX 01 32:31:40 TRACK 09 AUDIO TITLE "Just Octaves" PERFORMER "Bert Van Den Brink" FLAGS DCP INDEX 01 37:26:46 TRACK 10 AUDIO TITLE Tristesse PERFORMER "Bert Van Den Brink" FLAGS DCP INDEX 01 39:32:62 TRACK 11 AUDIO TITLE Woods PERFORMER "Bert Van Den Brink" FLAGS DCP INDEX 01 45:04:36 TRACK 12 AUDIO TITLE "Chase Blues" PERFORMER "Bert Van Den Brink" FLAGS DCP INDEX 01 50:06:67 TRACK 13 AUDIO TITLE Seconds PERFORMER "Bert Van Den Brink" FLAGS DCP INDEX 01 54:37:39 TRACK 14 AUDIO TITLE "Bachlude nr. 1" PERFORMER "Bert Van Den Brink" FLAGS DCP INDEX 01 56:30:14
Bert van den Brink – piano


Трекер:  [ 29-Янв-2012 14:49 ]

  

Скачать .torrent

Размер .torrent файла 15 KB


Размер: 185 MB
Хэш (hash) релиза: 89b98e4dc6c7d9521610d5ad89993f9fab828209

Еще никто не оставлял запись к записи скачать торрент Bert van den Brink - Berts Bytes - 2007, FLAC . Будь первым!

!Обратная связь